Ягуар / Le jaguar (Франсис Вебер / Francis Veber) [1996, Франция, комедия, боевик, приключения, HDTV 1080i] MVO (Амальгама) + DVO (СТС) + MVO (СВ-Дубль) + Sub Rus, Eng + Original Fre

Ответить на тему
 
Автор Сообщение

user ®

Стаж: 7 лет 7 месяцев

Сообщений: 20008

Пост Пост: #1 от 22-Мар-2014 23:50

[Цитировать]

Ягуар / Le jaguar Страна: Франция
Студия: Gaumont, Canal+ [fr], TF1 Films Production
Жанр: комедия, боевик, приключения
Год выпуска: 1996
Продолжительность: 01:35:54
Перевод: Профессиональный (многоголосый закадровый) Амальгама / ДВД Групп
Перевод 2: Профессиональный (двухголосый закадровый) СТС / ТВЦ
Перевод 3: Профессиональный (многоголосый закадровый) ТВС / СВ-Дубль
Cубтитры: русские, английские
Оригинальная аудиодорожка: французский
Режиссер: Франсис Вебер / Francis Veber
В ролях: Жан Рено, Патрик Брюэль, Харрисон Лоу, Патрисия Веласкес, Дэнни Трехо, Ролан Бланш, Франсуа Перро, Франсис Лемэр, Александра Вандернот, Джил Бирмингем
Описание: Однажды вечером в лифте фешенебельного парижского отеля "Крийон" оказались вместе три человека: индеец, приехавший из Амазонки с гуманитарным турне, его переводчик - француз, выросший среди индейцев и еще один занятный тип - бездельник и мошенник Перрен, преследуемый бандитами всех мастей за игорные долги.
Почему - то взгляд индейца Вану падает именно на него, и Перрен оказывается "избранным"... Спасаясь от преследователей, он вместе с Кампаной отправляется в леса Амазонки искать душу Вану, и с ним начинают происходить настолько невероятные события, что вся его прошлая жизнь кажется ему сущей безделицей...
Альтернативное описание:Легкая, приключенческая комедия начинается в лифте парижского отеля, где случайно встречаются могучий духом шаман из диких лесов Амазонки, мсье Кампана (Рено), борец за права индейцев, и легкомысленный и обаятельный повеса Перен, проигравший в покер 500000 франков. Если он не найдет эти полмиллиона, то его ждет смерть от рук двух жестоких убийц. Шаман почему-то проникся вниманием и любовью к неудачливому игроку, увидев в нем "Избранного", который способен победить злого индейца (Дэнни Трехо), укравшего его душу. Перен соглашается поехать в Амазонию, чтобы избежать верной гибели от рук убийц, но вместо увеселительной прогулки по экзотическим местам, его ждет самое серьезное испытание — поединок с могучим и злобным похитителем души. При помощи духа шамана, воплощенного в самом сильном хищнике лесов ягуаре, Перен не только одерживает победу, но и завоевывает сердце красавицы Майи...

Сэмпл
Тип релиза: HDTV 1080i - релиз от HDClub
Контейнер: MKV
Видео: MPEG4 AVC Video, H264, 16:9, 1920x1080, 25.000 fps, 8008 kbps
Аудио: Russian (Dolby AC3, 6 ch, 448 kbps, 16 bits, 48.0 KHz) - Амальгама / ДВД Групп
Аудио 2: Russian (Dolby AC3, 2 ch, 192 kbps, 16 bits, 48.0 KHz) - СТС / ТВЦ
Аудио 3: Russian (Dolby AC3, 2 ch, 192 kbps, 16 bits, 48.0 KHz) - ТВС / СВ-Дубль
Аудио 4: French (Dolby AC3, 6 ch, 448 kbps, 16 bits, 48.0 KHz) - оригинал
Формат субтитров: softsub (SRT)

MediaInfo

Общее
Уникальный идентификатор : 242227668823617095206234916467787949636 (0xB63B5A21907B836A9AB22B0A973BE644)
Полное имя : E:\1\Le Jaguar HDTV 1080i.mkv
Формат : Matroska
Версия формата : Version 4 / Version 2
Размер файла : 6,35 Гбайт
Продолжительность : 1 ч. 35 м.
Общий поток : 9477 Кбит/сек
Название фильма : Le.Jaguar.1996
Дата кодирования : UTC 2014-03-16 14:51:28
Программа кодирования : mkvmerge v6.8.0 ('Theme for Great Cities') 64bit built on Mar 2 2014 21:34:26
Библиотека кодирования : libebml v1.3.0 + libmatroska v1.4.1
Видео
Идентификатор : 1
Формат : AVC
Формат/Информация : Advanced Video Codec
Профиль формата : High@L4.0
Параметр CABAC формата : Да
Параметр ReFrames формата : 4 кадра
Параметр GOP формата : M=8, N=32
Идентификатор кодека : V_MPEG4/ISO/AVC
Продолжительность : 1 ч. 35 м.
Битрейт : 8008 Кбит/сек
Ширина : 1920 пикселей
Высота : 1080 пикселей
Соотношение сторон : 16:9
Режим частоты кадров : Постоянный
Частота кадров : 25,000 кадров/сек
Цветовое пространство : YUV
Субдискретизация насыщенности : 4:2:0
Битовая глубина : 8 бит
Тип развёртки : MBAFF
Бит/(Пиксели*Кадры) : 0.154
Размер потока : 5,36 Гбайт (85%)
Default : Да
Forced : Нет
Основные цвета : BT.709
Характеристики трансфера : BT.709
Коэффициенты матрицы : BT.709
Аудио #1
Идентификатор : 2
Формат : AC-3
Формат/Информация : Audio Coding 3
Расширение режима : CM (complete main)
Параметр Endianness формата : Big
Идентификатор кодека : A_AC3
Продолжительность : 1 ч. 35 м.
Вид битрейта : Постоянный
Битрейт : 448 Кбит/сек
Каналы : 6 каналов
Расположение каналов : Front: L C R, Side: L R, LFE
Частота : 48,0 КГц
Битовая глубина : 16 бит
Метод сжатия : С потерями
Задержка видео : -80 мс.
Размер потока : 307 Мбайт (5%)
Заголовок : MVO (Amal'gama / DVD GRUPP, 2002 god)
Язык : Russian
Default : Да
Forced : Нет
Аудио #2
Идентификатор : 3
Формат : AC-3
Формат/Информация : Audio Coding 3
Расширение режима : CM (complete main)
Параметр Endianness формата : Big
Идентификатор кодека : A_AC3
Продолжительность : 1 ч. 35 м.
Вид битрейта : Постоянный
Битрейт : 192 Кбит/сек
Каналы : 2 канала
Расположение каналов : Front: L R
Частота : 48,0 КГц
Битовая глубина : 16 бит
Метод сжатия : С потерями
Задержка видео : -80 мс.
Размер потока : 132 Мбайт (2%)
Заголовок : DVO (STS / TVC / Fil'm ozvuchen po zakazu NTV-profit na Mosfil'm-ton-studiya, 1997 god)
Язык : Russian
Default : Нет
Forced : Нет
Аудио #3
Идентификатор : 4
Формат : AC-3
Формат/Информация : Audio Coding 3
Расширение режима : CM (complete main)
Параметр Endianness формата : Big
Идентификатор кодека : A_AC3
Продолжительность : 1 ч. 35 м.
Вид битрейта : Постоянный
Битрейт : 192 Кбит/сек
Каналы : 2 канала
Расположение каналов : Front: L R
Частота : 48,0 КГц
Битовая глубина : 16 бит
Метод сжатия : С потерями
Задержка видео : -80 мс.
Размер потока : 132 Мбайт (2%)
Заголовок : MVO SV DUBL
Язык : Russian
Default : Нет
Forced : Нет
Аудио #4
Идентификатор : 5
Формат : AC-3
Формат/Информация : Audio Coding 3
Расширение режима : CM (complete main)
Параметр Endianness формата : Big
Идентификатор кодека : A_AC3
Продолжительность : 1 ч. 35 м.
Вид битрейта : Постоянный
Битрейт : 448 Кбит/сек
Каналы : 6 каналов
Расположение каналов : Front: L C R, Side: L R, LFE
Частота : 48,0 КГц
Битовая глубина : 16 бит
Метод сжатия : С потерями
Задержка видео : -80 мс.
Размер потока : 307 Мбайт (5%)
Заголовок : Original
Язык : French
Default : Нет
Forced : Нет
Текст #1
Идентификатор : 6
Формат : UTF-8
Идентификатор кодека : S_TEXT/UTF8
Идентификатор кодека/Информация : UTF-8 Plain Text
Язык : Russian
Default : Нет
Forced : Нет
Текст #2
Идентификатор : 7
Формат : UTF-8
Идентификатор кодека : S_TEXT/UTF8
Идентификатор кодека/Информация : UTF-8 Plain Text
Язык : English
Default : Нет
Forced : Нет

Скриншоты

Скачать

Скачать торрент!

Как скачивать? · Что такое торрент? · Рейтинг и ограничения

Сайт не распространяет и не хранит электронные версии произведений, а лишь предоставляет доступ к создаваемому пользователями каталогу ссылок на торрент-файлы, которые содержат только списки хеш-сумм

[Профиль] [ЛС]
Показать сообщения:    
Ответить на тему

Текущее время: Сегодня 16:17

Часовой пояс: GMT + 4



Вы не можете начинать темы
Вы не можете отвечать на сообщения
Вы не можете редактировать свои сообщения
Вы не можете удалять свои сообщения
Вы не можете голосовать в опросах
Вы не можете прикреплять файлы к сообщениям
Вы не можете скачивать файлы