Спасибо за обмен / Thanks for Sharing (Стюарт Блумберг / Stuart Blumberg) [2012, США, комедия, драма, BDRip 720p] MVO (R5) + Original (Eng) + Subs (Eng)

Ответить на тему
 
Автор Сообщение

user ®

Стаж: 7 лет 7 месяцев

Сообщений: 20008

Пост Пост: #1 от 22-Мар-2014 23:50

[Цитировать]

Спасибо за обмен / Thanks for Sharing

-
-Страна: США
Студия: Class 5 Films, Olympus Pictures
Жанр: комедия, драма
Год выпуска: 2012
Продолжительность: 01:52:40--Перевод: Профессиональный (многоголосый закадровый) R5
Cубтитры: английские (full, SDH)
Оригинальная аудиодорожка: английский--Режиссер: Стюарт Блумберг / Stuart Blumberg
В ролях: Марк Руффало, Тим Роббинс, Гвинет Пэлтроу, Джош Гад, Джоэли Ричардсон, Патрик Фьюджит, Кэрол Кейн, Пинк, Михаэлла Уоткинс, Эмили Миде--Описание: Три сексоголика решили бороться с пагубной зависимостью. С этой целью они отправляются в специальную клинику, где в рамках лечения должны пройти 12 этапов реабилитационного процесса. Дело это, как оказывается, непростое, но чего не сделаешь ради того, чтобы оправиться от сексуальной зависимости и наладить конструктивные отношения с окружающими, пожалуй, в первый раз в жизни…--imdb | kinopoisk | Сэмпл--Тип релиза: BDRip 720p [Thanks for Sharing 2012 720p BluRay DTS x264-SbR]
Контейнер: MKV
Видео: MPEG-4 AVC / 10,6 Mbps / 1280x720 / 23,976 fps / 16:9 / High Profile 4.1
Аудио 1: Russian AC3 / 5.1 / 48 kHz / 384 kbps / 16 bits |MVO, R5|
Аудио 2: English AC3 / 5.1 / 48 kHz / 640 kbps / 16 bits |original|
Формат субтитров: softsub [SRT]

MediaInfo

Общее
Уникальный идентификатор                 : 192045719699267803558375532958575371536 (0x907AA90492936541B0BADC4CC42E2510)
Полное имя                               : G:\HD\Спасибо за обмен.2012.BDRip.(720p).mkv
Формат                                   : Matroska
Версия формата                           : Version 4 / Version 2
Размер файла                             : 9,37 Гбайт
Продолжительность                        : 1 ч. 52 м.
Общий поток                              : 11,9 Мбит/сек
Дата кодирования                         : UTC 2014-03-19 12:46:58
Программа кодирования                    : mkvmerge v6.8.0 ('Theme for Great Cities') 64bit built on Mar  2 2014 21:34:26
Библиотека кодирования                   : libebml v1.3.0 + libmatroska v1.4.1
Attachment                               : Yes
Видео
Идентификатор                            : 1
Формат                                   : AVC
Формат/Информация                        : Advanced Video Codec
Профиль формата                          : High@L4.1
Параметр CABAC формата                   : Да
Параметр ReFrames формата                : 9 кадров
Идентификатор кодека                     : V_MPEG4/ISO/AVC
Продолжительность                        : 1 ч. 52 м.
Битрейт                                  : 10,6 Мбит/сек
Ширина                                   : 1280 пикселей
Высота                                   : 720 пикселей
Соотношение сторон                       : 16:9
Режим частоты кадров                     : Постоянный
Частота кадров                           : 23,976 кадра/сек
Цветовое пространство                    : YUV
Субдискретизация насыщенности            : 4:2:0
Битовая глубина                          : 8 бит
Тип развёртки                            : Прогрессивная
Бит/(Пиксели*Кадры)                      : 0.482
Размер потока                            : 8,38 Гбайт (89%)
Заголовок                                : Thanks for Sharing 2012 720p BluRay DTS x264-SbR
Библиотека кодирования                   : x264 core 140 r2377kMod 1ca7bb9
Настройки программы                      : cabac=1 / ref=9 / deblock=1:-3:-3 / analyse=0x3:0x133 / me=tesa / subme=11 / psy=1 / fade_compensate=0.00 / psy_rd=1.00:0.00 / mixed_ref=1 / me_range=24 / chroma_me=1 / trellis=2 / 8x8dct=1 / cqm=0 / deadzone=21,11 / fast_pskip=0 / chroma_qp_offset=-2 / threads=6 / lookahead_threads=1 / sliced_threads=0 / nr=0 / decimate=1 / interlaced=0 / bluray_compat=0 / constrained_intra=0 / fgo=0 / bframes=12 / b_pyramid=2 / b_adapt=2 / b_bias=0 / direct=3 / weightb=1 / open_gop=0 / weightp=2 / keyint=250 / keyint_min=23 / scenecut=40 / intra_refresh=0 / rc=crf / mbtree=0 / crf=15.7500 / qcomp=0.70 / qpmin=0 / qpmax=69 / qpstep=4 / ip_ratio=1.30 / pb_ratio=1.20 / aq=1:0.80
Язык                                     : English
Default                                  : Да
Forced                                   : Нет
Аудио #1
Идентификатор                            : 2
Формат                                   : AC-3
Формат/Информация                        : Audio Coding 3
Расширение режима                        : CM (complete main)
Параметр Endianness формата              : Big
Идентификатор кодека                     : A_AC3
Продолжительность                        : 1 ч. 52 м.
Вид битрейта                             : Постоянный
Битрейт                                  : 384 Кбит/сек
Каналы                                   : 6 каналов
Расположение каналов                     : Front: L C R, Side: L R, LFE
Частота                                  : 48,0 КГц
Битовая глубина                          : 16 бит
Метод сжатия                             : С потерями
Размер потока                            : 309 Мбайт (3%)
Заголовок                                : MVO, R5
Язык                                     : Russian
Default                                  : Да
Forced                                   : Нет
Аудио #2
Идентификатор                            : 3
Формат                                   : AC-3
Формат/Информация                        : Audio Coding 3
Расширение режима                        : CM (complete main)
Параметр Endianness формата              : Big
Идентификатор кодека                     : A_AC3
Продолжительность                        : 1 ч. 52 м.
Вид битрейта                             : Постоянный
Битрейт                                  : 640 Кбит/сек
Каналы                                   : 6 каналов
Расположение каналов                     : Front: L C R, Side: L R, LFE
Частота                                  : 48,0 КГц
Битовая глубина                          : 16 бит
Метод сжатия                             : С потерями
Размер потока                            : 516 Мбайт (5%)
Язык                                     : English
Default                                  : Нет
Forced                                   : Нет
Текст #1
Идентификатор                            : 4
Формат                                   : UTF-8
Идентификатор кодека                     : S_TEXT/UTF8
Идентификатор кодека/Информация          : UTF-8 Plain Text
Заголовок                                : full
Язык                                     : English
Default                                  : Нет
Forced                                   : Нет
Текст #2
Идентификатор                            : 5
Формат                                   : UTF-8
Идентификатор кодека                     : S_TEXT/UTF8
Идентификатор кодека/Информация          : UTF-8 Plain Text
Заголовок                                : SDH
Язык                                     : English
Default                                  : Нет
Forced                                   : Нет
Меню
00:00:00.000                             : :Chapter 01
00:06:33.184                             : :Chapter 02
00:13:25.179                             : :Chapter 03
00:20:34.858                             : :Chapter 04
00:26:10.902                             : :Chapter 05
00:32:39.040                             : :Chapter 06
00:40:52.199                             : :Chapter 07
00:46:01.425                             : :Chapter 08
00:51:49.981                             : :Chapter 09
01:00:08.396                             : :Chapter 10
01:07:12.111                             : :Chapter 11
01:13:02.753                             : :Chapter 12
01:20:40.460                             : :Chapter 13
01:26:54.626                             : :Chapter 14
01:32:51.357                             : :Chapter 15
01:46:46.691                             : :Chapter 16

Скриншоты


Дополнительно

За русскую дорогу спасибо New Team

Thanks for Sharing 2012 720p BluRay DTS x264-SbR

Release info
RELEASE NAME..: Thanks.for.Sharing.2012.720p.BluRay.DTS.x264-SbR
RELEASE SIZE..: 9.80 GiB
RUNTIME.......: 1h:52m:39s
VIDEO CODEC...: x264, crf, L4.1
FRAMERATE.....: 23.976 fps
BITRATE.......: 10880 Kbps
RESOLUTION....: 1280x720
AUDIO.........: English DTS 5.1 @ 1509 kbps
AUDIO.........: English AAC 2.0 @ 76.1 Kbps  (commentary)
SUBTITLES.....: English, english(SDH), spanish
CHAPTER.......: Included
SOURCE........: Thanks for Sharing 2012 1080p Blu-ray AVC DTS-HD MA 5.1-LAZERS
RELEASE DATE..: 29.12.2013
ENCODER.......: Delia
x264log
x264 [info]: frame I:1237  Avg QP:14.27  size:178015
x264 [info]: frame P:30093 Avg QP:15.52  size: 97791
x264 [info]: frame B:130742 Avg QP:16.75  size: 46129
x264 [info]: consecutive B-frames:  1.2%  1.0%  4.6% 10.4% 11.3% 57.2%  5.5%  2.5%  2.4%  0.9%  0.6%  0.5%  1.8%
encoded 162072 frames, 2.62 fps, 10880.83 kb/s
Source vs Encode


Скачать

Скачать торрент!

Как скачивать? · Что такое торрент? · Рейтинг и ограничения

Сайт не распространяет и не хранит электронные версии произведений, а лишь предоставляет доступ к создаваемому пользователями каталогу ссылок на торрент-файлы, которые содержат только списки хеш-сумм

[Профиль] [ЛС]
Показать сообщения:    
Ответить на тему

Текущее время: Сегодня 10:05

Часовой пояс: GMT + 4



Вы не можете начинать темы
Вы не можете отвечать на сообщения
Вы не можете редактировать свои сообщения
Вы не можете удалять свои сообщения
Вы не можете голосовать в опросах
Вы не можете прикреплять файлы к сообщениям
Вы не можете скачивать файлы