Идеальный незнакомец / Perfect Stranger (Джеймс Фоли / James Foley) [2007 г., США, Триллер, драма, BDRip 1080p] Dub + Original + Subs (Rus, Eng)

Ответить на тему
 
Автор Сообщение

user ®

Стаж: 7 лет 7 месяцев

Сообщений: 20008

Пост Пост: #1 от 22-Мар-2014 23:50

[Цитировать]

--Идеальный незнакомец / Perfect Stranger«Every Secret Leads to Another»- -Год выпуска: 2007
Страна: США
Жанр: Триллер, драма
Продолжительность: 01:48:58
Перевод: Профессиональный (дублированный)
Субтитры: Русские, Английские-Режиссер: Джеймс Фоли / James Foley
Сценарий: Тодд Комарники / Todd Komarnicki, Джон Бокенкамп / Jon Bokenkamp
Продюсер: Элейн Голдсмит-Томас / Elaine Goldsmith-Thomas, Чарльз Невирт / Charles Newirth, Дебора Шиндлер / Deborah Schindler, Рональд М. Бозман / Ronald M. Bozman,
Стивен Дж. Идс / Stephen J. Eads, Стефани Лэнгофф / Stephanie Langhoff, Дэниэл А. Томас / Daniel A. Thomas
Оператор: Анастас Н. Микос / Anastas N. Michos
Композитор: Антонио Пинто / Antonio Pinto
В ролях: Холли Берри (Rowena Price), Брюс Уиллис (Harrison Hill), Джованни Рибизи (Miles Haley), Ричард Портноу (Narron), Гари Дурдан (Cameron), Флоренция Лозаньо (Lieutenant Tejada), Никки Эйкокс (Grace), Кэтлин Чэлфант (Elizabeth Clayton), Гордон МакДональд (Senator Sachs), Дэниэлла Ван Граас (Josie), Паула Миранда (Mia Hill), Патти Д’Арбанвиль (Esmeralda)-Описание: Когда журналистка Ровена Прайс, занимающаяся расследованием убийства своей подруги, узнает, что к нему может быть причастен влиятельный глава рекламного агентства Харрисон Хилл, она затевает опасную игру вместе со своим помощником Майлзом Хэйли.- -Качество: Blu-ray Rip 1080p
Формат: MKV
Видео: MPEG-4 AVC (H264), High Profile 4.1, 1920x800, 23.976 fps, ~15500 kbps avg, bit/(pixel*frame) 0.420
Аудио №1: Russian: 48 kHz, AC3, 3/2 (L,C,R,l,r) + LFE ch, ~640.00 kbps avg //дублированный
Аудио №2: English: 48 kHz, DTS, 3/2 (L,C,R,l,r) + LFE ch, ~1510.00 kbps avg //оригинал
Субтитры: Russian (SRT), English (SRT)
Навигация по главам: есть-

Скриншоты

Blu-Ray vs Rip






MediaInfo

E:\Perfect Stranger [Идеальный незнакомец] (2007) 1920x800 BDRip RusEngSubsChpt.mkv
General
Unique ID : 178464135892246188940285377029838914449 (0x8642F13CA18EF988BD1B2838814AC391)
Complete name : E:\Perfect Stranger [Идеальный незнакомец] (2007) 1920x800 BDRip RusEngSubsChpt.mkv
Format : Matroska
Format version : Version 4 / Version 2
File size : 13.7 GiB
Duration : 1h 48mn
Overall bit rate : 18.0 Mbps
Movie name : -=RbM=-
Encoded date : UTC 2014-03-21 15:54:49
Writing application : mkvmerge v6.6.0 ('The Edge Of The In Between') built on Dec 1 2013 17:55:00
Writing library : libebml v1.3.0 + libmatroska v1.4.1
Video #1
ID : 1
Format : AVC
Format/Info : Advanced Video Codec
Format profile : High@L4.1
Format settings, CABAC : Yes
Format settings, ReFrames : 5 frames
Codec ID : V_MPEG4/ISO/AVC
Duration : 1h 48mn
Bit rate : 15.5 Mbps
Width : 1 920 pixels
Height : 800 pixels
Display aspect ratio : 2.40:1
Frame rate mode : Constant
Frame rate : 23.976 fps
Color space : YUV
Chroma subsampling : 4:2:0
Bit depth : 8 bits
Scan type : Progressive
Bits/(Pixel*Frame) : 0.420
Stream size : 11.8 GiB (86%)
Title : 65% of the original
Writing library : x264 core 142 r2409+41 9f37d41 tMod [8-bit@all X86_64]
Encoding settings : cabac=1 / ref=5 / deblock=1:-2:-2 / analyse=0x3:0x133 / me=umh / subme=11 / psy=1 / fade_compensate=0.00 / psy_rd=1.10:0.00 / mixed_ref=1 / me_range=32 / chroma_me=1 / trellis=2 / 8x8dct=1 / cqm=0 / deadzone=21,11 / fast_pskip=0 / chroma_qp_offset=-2 / threads=12 / lookahead_threads=3 / sliced_threads=0 / nr=0 / decimate=1 / interlaced=0 / bluray_compat=0 / constrained_intra=0 / fgo=0 / bframes=11 / b_pyramid=2 / b_adapt=2 / b_bias=0 / direct=3 / weightb=1 / open_gop=0 / weightp=2 / keyint=240 / keyint_min=23 / scenecut=40 / intra_refresh=0 / rc=crf / mbtree=0 / crf=17.0000 / qcomp=0.60 / qpmin=0:0:0 / qpmax=69:69:69 / qpstep=4 / ip_ratio=1.40 / pb_ratio=1.20 / aq=4:0.80 / aq-sensitivity=10.00 / aq-factor=1.00:1.00:1.00 / aq2=0 / aq3=0
Language : English
Default : Yes
Forced : No
Audio #2
ID : 2
Format : AC-3
Format/Info : Audio Coding 3
Mode extension : CM (complete main)
Format settings, Endianness : Big
Codec ID : A_AC3
Duration : 1h 48mn
Bit rate mode : Constant
Bit rate : 640 Kbps
Channel(s) : 6 channels
Channel positions : Front: L C R, Side: L R, LFE
Sampling rate : 48.0 KHz
Bit depth : 16 bits
Compression mode : Lossy
Stream size : 499 MiB (4%)
Title : Dub AC3 5.1ch 640kbps
Language : Russian
Default : Yes
Forced : No
Audio #3
ID : 3
Format : DTS
Format/Info : Digital Theater Systems
Mode : 16
Format settings, Endianness : Big
Codec ID : A_DTS
Duration : 1h 48mn
Bit rate mode : Constant
Bit rate : 1 510 Kbps
Channel(s) : 6 channels
Channel positions : Front: L C R, Side: L R, LFE
Sampling rate : 48.0 KHz
Bit depth : 24 bits
Compression mode : Lossy
Stream size : 1.15 GiB (8%)
Title : Original DTS 5.1ch 1510kbps
Language : English
Default : No
Forced : No
Text #4
ID : 4
Format : UTF-8
Codec ID : S_TEXT/UTF8
Codec ID/Info : UTF-8 Plain Text
Language : Russian
Default : No
Forced : No
Text #5
ID : 5
Format : UTF-8
Codec ID : S_TEXT/UTF8
Codec ID/Info : UTF-8 Plain Text
Language : English
Default : No
Forced : No
Menu
00:00:00.000 : en:0:00:00.000
00:05:21.821 : en:0:05:21.821
00:12:18.946 : en:0:12:18.946
00:20:44.868 : en:0:20:44.868
00:27:23.224 : en:0:27:23.224
00:34:58.471 : en:0:34:58.471
00:41:59.975 : en:0:41:59.975
00:51:50.482 : en:0:51:50.482
00:57:38.079 : en:0:57:38.079
01:04:38.457 : en:1:04:38.457
01:11:20.276 : en:1:11:20.276
01:17:23.347 : en:1:17:23.347
01:24:55.924 : en:1:24:55.924
01:31:49.420 : en:1:31:49.420
01:35:18.003 : en:1:35:18.003
01:41:38.467 : en:1:41:38.467

x264 log

x264 [info]: frame I:1109 Avg QP:15.06 size:244128 PSNR Mean Y:48.41 U:49.28 V:50.04 Avg:48.77 Global:48.12
x264 [info]: frame P:31026 Avg QP:16.66 size:122367 PSNR Mean Y:46.91 U:48.31 V:49.50 Avg:47.44 Global:46.78
x264 [info]: frame B:124632 Avg QP:18.23 size: 71187 PSNR Mean Y:45.70 U:47.37 V:48.97 Avg:46.32 Global:45.64
x264 [info]: consecutive B-frames: 1.7% 1.4% 3.7% 19.1% 15.3% 40.2% 8.1% 5.8% 2.0% 0.7% 0.7% 1.4%
x264 [info]: mb I I16..4: 4.9% 86.4% 8.7%
x264 [info]: mb P I16..4: 0.7% 25.3% 1.0% P16..4: 21.8% 31.1% 12.7% 2.0% 0.1% skip: 5.4%
x264 [info]: mb B I16..4: 0.1% 3.5% 0.1% B16..8: 40.2% 26.5% 6.2% direct:11.9% skip:11.6% L0:43.1% L1:39.7% BI:17.2%
x264 [info]: 8x8 transform intra:93.9% inter:48.5%
x264 [info]: direct mvs spatial:100.0% temporal:0.0%
x264 [info]: coded y,uvDC,uvAC intra: 97.2% 97.0% 91.3% inter: 63.1% 56.6% 24.4%
x264 [info]: i16 v,h,dc,p: 57% 10% 5% 28%
x264 [info]: i8 v,h,dc,ddl,ddr,vr,hd,vl,hu: 9% 6% 11% 11% 14% 13% 11% 13% 11%
x264 [info]: i4 v,h,dc,ddl,ddr,vr,hd,vl,hu: 16% 7% 7% 9% 14% 14% 12% 11% 11%
x264 [info]: i8c dc,h,v,p: 60% 11% 13% 16%
x264 [info]: Weighted P-Frames: Y:9.9% UV:7.9%
x264 [info]: ref P L0: 42.2% 8.6% 25.8% 11.7% 10.9% 0.7% 0.1%
x264 [info]: ref B L0: 76.3% 16.8% 5.3% 1.7%
x264 [info]: ref B L1: 92.4% 7.6%
x264 [info]: SSIM Mean Y:0.9797791 (16.942db)
x264 [info]: PSNR Mean Y:45.955 U:47.569 V:49.085 Avg:46.561 Global:45.858 kb/s:15831.79
x264 [info]: encoded 156767 frames, 4.614 fps, 15831.79 kb/s, 12340 MB
x264 [info]: ended at Fri Mar 21 16:38:29 2014
x264 [info]: encoding duration 9:26:18
Скачать

Скачать торрент!

Как скачивать? · Что такое торрент? · Рейтинг и ограничения

Сайт не распространяет и не хранит электронные версии произведений, а лишь предоставляет доступ к создаваемому пользователями каталогу ссылок на торрент-файлы, которые содержат только списки хеш-сумм

[Профиль] [ЛС]
Показать сообщения:    
Ответить на тему

Текущее время: Сегодня 23:53

Часовой пояс: GMT + 4



Вы не можете начинать темы
Вы не можете отвечать на сообщения
Вы не можете редактировать свои сообщения
Вы не можете удалять свои сообщения
Вы не можете голосовать в опросах
Вы не можете прикреплять файлы к сообщениям
Вы не можете скачивать файлы