Дом призраков / Dark house (Виктор Сальва / Victor Salva) [2014, США, Мистика, DVDRip] Sub Rus + Original Eng

Ответить на тему
 
Автор Сообщение

user ®

Стаж: 7 лет 7 месяцев

Сообщений: 20008

Пост Пост: #1 от 22-Мар-2014 23:50

[Цитировать]

Дом призраков / Dark house
Страна: США
Жанр: Мистика
Год выпуска: 2014
Продолжительность: 01:42:32
Перевод: Субтитры (М. Васильев aka lakdhf)
Cубтитры: русские
Оригинальная аудиодорожка: английский
Режиссер: Виктор Сальва / Victor Salva
В ролях: Люк Клейнтенк, Энтони Рей Перез, Алекс МакКенна, Тобин Белл, Лейси Анзелк
Описание: У Ника Ди Санто и так жизнь не сахар. С детства его преследуют странные видения, а родная мама сошла с ума и доживает свои дни в психушке, а тут еще выясняется, что он является владельцем старинного дома с мутным прошлым, который находится фиг знает его. Ник отправляется на поиски своей недвижимости, но когда прибудет на место, окажется, что он - не единственный, кто претендует на эту жилплощадь
Доп. информация: Авторы фильма не совсем понятно с какого перепуга посчитали, что сняли фильм ужасов (во всех кинобазах фильм значится в этой жанровой нише). Это, скажем так, введение потребителя в заблуждение.
Ничего ужасного в фильме нет.
Это попытка замутить весьма стандартную мистическую сказку на базе штампов из околорелигиозной мифологии. У американцев очень богатая традиция таких фильмов.
Ну, и временами режиссера заносило на территорию комедии. Как еще обьяснить, что минимум пару сцен в фильме без смеха смотреть невозможно
Кому глядеть фильм?
- всем, у кого есть полтора часа свободного времени, а все кроссворды и судоку уже разгаданы
- всем, кого радует наличие в кадре Тобина Белла. А здесь он еще и в продюсерах! Представляете, в какой восторг его привел сценарий!
Сэмпл: http://yadi.sk/d/0hBHYwVRKyr9V
Качество видео: DVDRip
Формат видео: AVI
Видео: 815 Kbps, 640x272 (2.35:1) 23 976 fps, MPEG 4 XviD
Аудио: 128 Kbps, 48.0 KHz, 2 ch, MPEG Audio MP 3
Формат субтитров: softsub (SRT)

MediaInfo

General
Complete name : C:\Users\Владелец\Desktop\Dark H.avi
Format : AVI
Format/Info : Audio Video Interleave
File size : 698 MiB
Duration : 1h 42mn
Overall bit rate : 952 Kbps
Video
ID : 0
Format : MPEG-4 Visual
Format profile : Advanced Simple@L5
Format settings, BVOP : 2
Format settings, QPel : No
Format settings, GMC : No warppoints
Format settings, Matrix : Default (H.263)
Codec ID : XVID
Codec ID/Hint : XviD
Duration : 1h 42mn
Bit rate : 815 Kbps
Width : 640 pixels
Height : 272 pixels
Display aspect ratio : 2.35:1
Frame rate : 23.976 fps
Color space : YUV
Chroma subsampling : 4:2:0
Bit depth : 8 bits
Scan type : Progressive
Compression mode : Lossy
Bits/(Pixel*Frame) : 0.195
Stream size : 597 MiB (86%)
Writing library : XviD 64
Audio
ID : 1
Format : MPEG Audio
Format version : Version 1
Format profile : Layer 3
Mode : Joint stereo
Codec ID : 55
Codec ID/Hint : MP3
Duration : 1h 42mn
Bit rate mode : Constant
Bit rate : 128 Kbps
Channel(s) : 2 channels
Sampling rate : 48.0 KHz
Compression mode : Lossy
Stream size : 93.9 MiB (13%)
Alignment : Split accross interleaves
Interleave, duration : 42 ms (1.00 video frame)
Interleave, preload duration : 500 ms
Writing library : LAME3.99r
Encoding settings : -m j -V 4 -q 3 -lowpass 17 -b 128

Скриншот c названием фильма

Скриншоты







Субтитры

1
00:00:29,571 --> 00:00:30,571
Ди Санто
2
00:00:30,572 --> 00:00:33,063
Я пришел к матери
3
00:00:33,200 --> 00:00:35,191
Посетитель
4
00:00:35,327 --> 00:00:37,113
Поднимайтесь на второй этаж
5
00:00:37,246 --> 00:00:39,953
Доктор вас встретит
6
00:00:40,082 --> 00:00:41,322
Второй?
7
00:00:48,840 --> 00:00:50,296
А можно вывести ее на прогулку?
8
00:00:50,467 --> 00:00:53,004
Мы могли бы пройтись по парку,
9
00:00:53,136 --> 00:00:54,842
солнечная погода и все такое
10
00:00:54,972 --> 00:00:56,303
Она никогда не выходит на улицу
11
00:00:56,431 --> 00:00:58,513
За все годы, что она здесь,
она даже ни разу
12
00:00:58,642 --> 00:01:00,132
не спустилась в комнату для посетителей
13
00:01:00,310 --> 00:01:01,310
Она - моя мать, а...
14
00:01:01,436 --> 00:01:02,471
Я...
15
00:01:02,604 --> 00:01:03,969
Я несколько лет ее не видел
16
00:01:04,147 --> 00:01:07,310
Она сама попросила позвать вас
17
00:01:11,321 --> 00:01:17,442
Если вам удастся вытащить ее наружу,
я буду рад
18
00:01:17,578 --> 00:01:20,069
Мисс Ди Санто?
19
00:01:20,163 --> 00:01:21,403
Ваш сын пришел
20
00:01:25,043 --> 00:01:27,284
Чем вы ее накачали?
Скачать

Скачать торрент!

Как скачивать? · Что такое торрент? · Рейтинг и ограничения

Сайт не распространяет и не хранит электронные версии произведений, а лишь предоставляет доступ к создаваемому пользователями каталогу ссылок на торрент-файлы, которые содержат только списки хеш-сумм

[Профиль] [ЛС]
Показать сообщения:    
Ответить на тему

Текущее время: Сегодня 12:12

Часовой пояс: GMT + 4



Вы не можете начинать темы
Вы не можете отвечать на сообщения
Вы не можете редактировать свои сообщения
Вы не можете удалять свои сообщения
Вы не можете голосовать в опросах
Вы не можете прикреплять файлы к сообщениям
Вы не можете скачивать файлы