Совместное патрулирование / Ride Along (Тим Стори / Tim Story) [2014, США, Криминал, Комедия, DVDScreener] VO (qwerty) + Original Eng

Ответить на тему
 
Автор Сообщение

user ®

Стаж: 7 лет 7 месяцев

Сообщений: 20008

Пост Пост: #1 от 22-Мар-2014 15:30

[Цитировать]

Совместное патрулирование / Ride Along
-
-Страна: США
Жанр: Криминал, Комедия
Год выпуска: 2014
Продолжительность: 01:39:23-Перевод: Одноголосый закадровый (qwerty)
Cубтитры: китайские
Оригинальная аудиодорожка: английская
-
Режиссер: Тим Стори / Tim Story
В ролях: Айс Кьюб, Кевин Харт, Лоренс Фишбёрн, Джон Легуизамо, Брюс МакГилл, Тика Самптер, Брайан Коллен, Драгош Букур, Гари Оуэн, Джейкоб Латимор
-
Описание: Бен, только-только поступивший в полицейскую академию, отправляется вместе с полицейским Джеймсом в патруль по Атланте, чтобы доказать, что он достоин жениться на Энджел, сестре Джеймса.
-
Сэмпл: http://sendfile.su/957034
Качество видео: DVDScreener
Формат видео: AVI
-
Видео: Xvid; 720 x 304; 2,35:1; 24,000 кадра/сек; 1625 Кбит/сек; 0.309
Аудио: MPEG Audio Layer 3; 48,0 КГц; 256 Кбит/сек; 2 канала, русская
Аудио 2: AC-3; 48,0 КГц; 160 Кбит/сек; 2 канала, английская оригинальная дорожка
Формат субтитров: hardsub (неотключаемые),
-

MediaInfo

Формат : AVI
Формат/Информация : Audio Video Interleave
Размер файла : 1,42 Гбайт
Продолжительность : 1 ч. 39 м.
Общий поток : 2051 Кбит/сек
Программа кодирования : VirtualDubMod 1.5.10.2 (build 2540/release)
Библиотека кодирования : VirtualDubMod build 2540/release
Видео
Идентификатор : 0
Формат : xvid
Идентификатор кодека : xvid
Продолжительность : 1 ч. 39 м.
Битрейт : 1625 Кбит/сек
Ширина : 720 пикселей
Высота : 304 пикселя
Соотношение сторон : 2,35:1
Частота кадров : 24,000 кадра/сек
Бит/(Пиксели*Кадры) : 0.309
Размер потока : 1,13 Гбайт (79%)
Аудио #1
Идентификатор : 1
Формат : MPEG Audio
Версия формата : Version 1
Профиль формата : Layer 3
Режим : Joint stereo
Идентификатор кодека : 55
Идентификатор кодека/Подсказка : MP3
Продолжительность : 1 ч. 39 м.
Вид битрейта : Постоянный
Битрейт : 256 Кбит/сек
Каналы : 2 канала
Частота : 48,0 КГц
Метод сжатия : С потерями
Размер потока : 182 Мбайт (12%)
Выравнивание : Соединение по промежуткам
Продолжительность промежутка : 42 мс. (1,00 видеокадр)
Время предзагрузки промежутка : 504 мс.
Аудио #2
Идентификатор : 2
Формат : AC-3
Формат/Информация : Audio Coding 3
Расширение режима : CM (complete main)
Параметр Endianness формата : Big
Идентификатор кодека : 2000
Продолжительность : 1 ч. 39 м.
Вид битрейта : Постоянный
Битрейт : 160 Кбит/сек
Каналы : 2 канала
Расположение каналов : Front: L R
Частота : 48,0 КГц
Битовая глубина : 16 бит
Метод сжатия : С потерями
Размер потока : 114 Мбайт (8%)
Выравнивание : Соединение по промежуткам
Продолжительность промежутка : 192 мс. (4,61 видеокадров)
Время предзагрузки промежутка : 576 мс.

Скриншот c названием фильма

Скриншоты

Скачать

Скачать торрент!

Как скачивать? · Что такое торрент? · Рейтинг и ограничения

Сайт не распространяет и не хранит электронные версии произведений, а лишь предоставляет доступ к создаваемому пользователями каталогу ссылок на торрент-файлы, которые содержат только списки хеш-сумм

[Профиль] [ЛС]
Показать сообщения:    
Ответить на тему

Текущее время: Сегодня 10:05

Часовой пояс: GMT + 4



Вы не можете начинать темы
Вы не можете отвечать на сообщения
Вы не можете редактировать свои сообщения
Вы не можете удалять свои сообщения
Вы не можете голосовать в опросах
Вы не можете прикреплять файлы к сообщениям
Вы не можете скачивать файлы