Белое солнце пустыни (Владимир Мотыль) [1969, Боевик, Драма, Мелодрама, Комедия, Приключения, Военный, BDRip]

Ответить на тему
 
Автор Сообщение

user ®

Стаж: 7 лет 7 месяцев

Сообщений: 20008

Пост Пост: #1 от 22-Мар-2014 12:20

[Цитировать]

Белое солнце пустыни
-Жанр: Боевик, Драма, Мелодрама, Комедия, Приключения, Военный
Год выпуска: 1969
Продолжительность: 01:23:31-Режиссёр: Владимир Мотыль-В ролях: Анатолий Кузнецов, Павел Луспекаев, Спартак Мишулин, Кахи Кавсадзе, Раиса Куркина, Николай Годовиков, Татьяна Федотова, Муса Дудаев, Николай Бадьев, Владимир Кадочников, Галина Лучай, Алла Лименес, Татьяна Кричевская, Яков Ленц, Татьяна Ткач, Александр Массарский, Игорь Милонов, Лидия Смирнова, Светлана Сливинская, Зинаида Рахматова, Татьяна Денисова, Велта Деглав, Ираклий Нижарадзе, Яков Базелян, Галина Дашевская, Галина Умпелева-Описание: Бесконечная пустыня, боец Сухов, прикуривающий с динамитной шашки, нескладный Петруха с вечно заклинивающей трехлинейкой, обаятельный Верещагин, с надоевшей черной икрой и знаменитыми песнями-балладами, ловкий Саид с незабвенным «Стреляли», злодей Абдулла со своей бандой, любознательная Гульчатай, играющая с черепахою…-Доп. информация:

Знаете ли вы, что...

  • Фильм с рабочим названием «Спасите гарем!» снимали в Ленинградской области, в Каракумах и под Махачкалой на берегу Каспия.
  • Интересна судьба главного героя фильма — товарища Сухова. Сначала на эту роль пригласили актера Георгия Юматова. Но у него в то время были серьезные проблемы с алкоголем. И режиссер поставил ему условие: уйдешь в запой — сниму с фильма. Как назло, прямо накануне съемок Юматов «сорвался»: напился и ввязался в драку. Все лицо актера было побито, несмотря на то, что он просил своих обидчиков не оставлять синяков, так как грим не сможет «убрать» фингалы. Но те били именно по лицу. Ни о какой главной роли после этого не могло быть и речи. Тут и пригласили сниматься Анатолия Кузнецова, которого срочно вызвали из Москвы.
  • Кровь на лице Верещагина в эпизоде на баркасе — настоящая. Актёр Павел Луспекаев явился на съёмочную площадку с ножевой раной на лице, которую получил в потасовке с местными жителями в пивной поблизости.
  • Среди «жён Абдуллы» были только две профессиональные актрисы, остальных играли баскетболистка, научный сотрудник и продавец. Так как после съёмок основных сцен девушкам нужно было срочно возвращаться на работу, в эпизодах отсутствующих «жён» пришлось дублировать солдатами. Интересно, что местные девушки отказались участвовать в съемках, все девушки игравшие жен были привезены из Москвы.
  • После того, как Верещагин выбрасывает из окна подпоручика из отряда Абдуллы, тот, отряхнувшись и сев на коня, произносит ставшую знаменитой фразу «Да гранаты у него не той системы». Этой фразы в сценарии не было, она родилась экспромтом.
  • По сценарию, Верещагина звали Александр, но Павел Луспекаев вложил в своего героя столько души, что поменялось даже имя персонажа.
  • В полной версии, в конце фильма — жены выбегают, бросаются к мертвому Абдулле и рыдают. Это эпизод был вырезан цензурой.
  • Актёр Кахи Кавсадзе за всё время съёмок так и не научился ездить верхом. На всех кадрах он либо сидит неподвижно, а лошадь крепко держат под уздцы, либо его носит на плечах другой человек.
-Качество видео:]BDRip
Формат видео: AVI
Видео: 720 x 528 (1.36:1), 23.976 fps, XviD build 65 ~2082 kbps avg, 0.23 bit/pixel
Аудио: 48 kHz, AC3 Dolby Digital, 3/2 (L,C,R,l,r) + LFE ch, ~448.00 kbps avg

MediaInfo

Format : AVI
Format/Info : Audio Video Interleave
File size : 1.48 GiB
Duration : 1h 23mn
Overall bit rate : 2 540 Kbps
Writing application : VirtualDubMod 1.5.10.3 | www.virtualdub-fr.org || (build 2550/release)
Writing library : VirtualDubMod build 2550/release
Video
ID : 0
Format : MPEG-4 Visual
Format profile : Advanced Simple@L5
Format settings, BVOP : Yes
Format settings, QPel : No
Format settings, GMC : No warppoints
Format settings, Matrix : Custom
Codec ID : XVID
Codec ID/Hint : XviD
Duration : 1h 23mn
Bit rate : 2 083 Kbps
Width : 720 pixels
Height : 528 pixels
Display aspect ratio : 4:3
Frame rate : 23.976 fps
Color space : YUV
Chroma subsampling : 4:2:0
Bit depth : 8 bits
Scan type : Progressive
Bits/(Pixel*Frame) : 0.229
Stream size : 1.22 GiB (82%)
Writing library : XviD 65
Audio
ID : 1
Format : AC-3
Format/Info : Audio Coding 3
Mode extension : CM (complete main)
Codec ID : 2000
Duration : 1h 23mn
Bit rate mode : Constant
Bit rate : 448 Kbps
Channel(s) : 6 channels
Channel positions : Front: L C R, Side: L R, LFE
Sampling rate : 48.0 KHz
Bit depth : 16 bits
Stream size : 268 MiB (18%)
Alignment : Split accross interleaves
Interleave, duration : 42 ms (1.00 video frame)
Interleave, preload duration : 500 ms

Скриншоты



ПРИЯТНОГО ПРОСМОТРА!
Скачать

Скачать торрент!

Как скачивать? · Что такое торрент? · Рейтинг и ограничения

Сайт не распространяет и не хранит электронные версии произведений, а лишь предоставляет доступ к создаваемому пользователями каталогу ссылок на торрент-файлы, которые содержат только списки хеш-сумм

[Профиль] [ЛС]
Показать сообщения:    
Ответить на тему

Текущее время: Сегодня 16:04

Часовой пояс: GMT + 4



Вы не можете начинать темы
Вы не можете отвечать на сообщения
Вы не можете редактировать свои сообщения
Вы не можете удалять свои сообщения
Вы не можете голосовать в опросах
Вы не можете прикреплять файлы к сообщениям
Вы не можете скачивать файлы