Любовь сквозь время / Winter\'s Tale (Акива Голдсман, Марк Хелприн / Akiva Goldsman, Mark Helprin) [2014, США, Фэнтези, драма, мелодрама, детектив, WEBRip] Dub [звук с TS]

Ответить на тему
 
Автор Сообщение

user ®

Стаж: 7 лет 7 месяцев

Сообщений: 20008

Пост Пост: #1 от 22-Мар-2014 06:00

[Цитировать]

Любовь сквозь время / Winter's Tale- Страна: США
Студия: Warner Bros. Pictures
Жанр: Фэнтези, драма, мелодрама, детектив
Год выпуска: 2014
Продолжительность: 01:55:19
Перевод: Профессиональный (дублированный) [звук с TS]
Субтитры: Вшитые не отключаемые
Язык субтитров: Корейский
Оригинальная аудиодорожка: нет-Режиссер: Акива Голдсман, Марк Хелприн / Akiva Goldsman, Mark Helprin
Продюсер: Акива Голдсман, Марк Э. Платт, Майкл Тадросс-В ролях: Колин Фаррелл, Джессика Браун-Финдли, Рассел Кроу, Дженнифер Коннелли, Уилл Смит, Уильям Хёрт, МакКайла Твиггс, Ева Мари Сэйнт, Рипли Собо, Кевин Корригэн-Описание: Действие фильма происходит одновременно в XIX веке и в наше время на Манхэттене. Воришка Питер Лэйк влюбляется в умирающую Беверли Пенн, девушку, живущую в доме, который он только что обчистил. Любовь его может оказаться не только чистой и искренней, но еще и последней, так как по пятам за ним ходят приспешники босса местной мафии, который намеревается прикончить Питера. Однажды, когда гангстерам почти удается отправить паренька на тот свет, его спасает… волшебный белый конь. Спустя некоторое время, удирая от очередной бригады бандитов, конь и его мальчик врезаются в стену из облаков и исчезают на многие годы. Возвращаются они тогда, когда в Нью-Йорке бушует пожар, и Питер обнаруживает в себе качества настоящего Мессии: он видит и слышит то, что недоступно другим; он помнит всех умерших и творит чудеса, достойные самого Спасителя.-Дата мировой премьеры: 10 февраля 2014
Дата российской премьеры: 13 февраля 2014, «Каро-Премьер»
Дата выхода DVD релиза: 19 июня 2014, «CP Дистрибуция»- -Качество видео: WEBRip
Формат видео: AVI
Видео: 720x304 (2.37:1), 23.976 fps, XviD build 73, 1561 kbps avg, 0.30 bit/pixel
Аудио: 44.100 kHz, MPEG Layer 3, 2 ch, 128.00 kbps avg-

MediaInfo

General
Complete name                            : C:\Desktop\Lubov.Skvoz.Vremya.2014.Dt.WEBRip.1400MB.avi
Format                                   : AVI
Format/Info                              : Audio Video Interleave
File size                                : 1.37 GiB
Duration                                 : 1h 55mn
Overall bit rate                         : 1 699 Kbps
Writing application                      : VirtualDubMod 1.5.10.3 | www.virtualdub-fr.org || (build 2550/release)
Writing library                          : VirtualDubMod build 2550/release
Video
ID                                       : 0
Format                                   : MPEG-4 Visual
Format profile                           : Advanced Simple@L5
Format settings, BVOP                    : 2
Format settings, QPel                    : No
Format settings, GMC                     : No warppoints
Format settings, Matrix                  : Default (MPEG)
Codec ID                                 : XVID
Codec ID/Hint                            : XviD
Duration                                 : 1h 55mn
Bit rate                                 : 1 562 Kbps
Width                                    : 720 pixels
Height                                   : 304 pixels
Display aspect ratio                     : 2.35:1
Frame rate                               : 23.976 fps
Color space                              : YUV
Chroma subsampling                       : 4:2:0
Bit depth                                : 8 bits
Scan type                                : Progressive
Compression mode                         : Lossy
Bits/(Pixel*Frame)                       : 0.298
Stream size                              : 1.26 GiB (92%)
Writing library                          : XviD 73
Audio
ID                                       : 1
Format                                   : MPEG Audio
Format version                           : Version 1
Format profile                           : Layer 3
Codec ID                                 : 55
Codec ID/Hint                            : MP3
Duration                                 : 1h 55mn
Bit rate mode                            : Constant
Bit rate                                 : 128 Kbps
Channel(s)                               : 2 channels
Sampling rate                            : 44.1 KHz
Compression mode                         : Lossy
Stream size                              : 106 MiB (8%)
Alignment                                : Split accross interleaves
Interleave, duration                     : 42 ms (1.00 video frame)
Interleave, preload duration             : 500 ms
Writing library                          : LAME3.99r
Encoding settings                        : -m s -V 4 -q 2 -lowpass 17 -b 128

Скриншот c названием фильма

Скриншоты

-
Скачать

Скачать торрент!

Как скачивать? · Что такое торрент? · Рейтинг и ограничения

Сайт не распространяет и не хранит электронные версии произведений, а лишь предоставляет доступ к создаваемому пользователями каталогу ссылок на торрент-файлы, которые содержат только списки хеш-сумм

[Профиль] [ЛС]
Показать сообщения:    
Ответить на тему

Текущее время: Сегодня 02:11

Часовой пояс: GMT + 4



Вы не можете начинать темы
Вы не можете отвечать на сообщения
Вы не можете редактировать свои сообщения
Вы не можете удалять свои сообщения
Вы не можете голосовать в опросах
Вы не можете прикреплять файлы к сообщениям
Вы не можете скачивать файлы