Плотина 999 / Проклятая волна / Dam999 (Сохан Рой / Sohan Roy) [2011, Индия, ОАЭ, Сингапур, фантастика, триллер, драма, приключения, HDRip-AVC] MVO (лицензия) + Sub Rus + Original Eng

Ответить на тему
 
Автор Сообщение

user ®

Стаж: 12 лет

Сообщений: 15092

Пост Пост: #1 от 22-Мар-2014 01:05

[Цитировать]

Плотина 999 / Проклятая волна / Dam999
Страна: Индия, ОАЭ, Сингапур
Жанр: фантастика, триллер, драма, приключения
Год выпуска: 2011
Продолжительность: 01:50:18
Перевод: Профессиональный (многоголосый закадровый) лицензия
Cубтитры: русские, английские
Оригинальная аудиодорожка: английский
Режиссер: Сохан Рой / Sohan Roy
В ролях: Джошуа Фредерик Смит, Мегха Бурман, Линда Арсенио, Раджит Капур, Вимала Менон, Ашиш Видьятхи, Jaala Pickering, Джинит Ратх, Гарри Кей, Michael Eshwar
Описание: Мэр Джон Браун решает возвести новую дамбу для замены столетней плотины, построенной еще его дедом во времена колониализма в Индии, дабы избавить 2,5-миллионный город от угрозы наводнения, но гибнет во время акций протеста. Его зять, коррумпированный политик, становится следующим мэром и объявляет об открытии новой плотины, которую он построил без соблюдения каких-либо мер безопасности. Астролог Шанкаран предсказывает катастрофу, и группа моряков объединяется, чтобы попытаться избежать этого и спасти людей...
Доп. информация: Сохранено оригинальное деление на главы
Сэмпл: http://multi-up.com/960702
Качество видео: HDRip-AVC
Формат видео: MKV
Видео: 1008x428 (2.35:1), 23.976 fps, H264 ~ 1632 kbps avg, 0.158 bit/pixel
Аудио: 1: 48 kHz, Dolby AC3, 6 ch, 256 kbps, русский
Аудио 2: 2: 48 kHz, Dolby AC3, 6 ch, 448 kbps, английский (отдельным файлом)
Формат субтитров: softsub (SRT)
Доп. информация о субтитрах: отключаемые

MediaInfo

Общее
Уникальный идентификатор : 209960829429870080133147440102650419940 (0x9DF4FC1F70A5B17AB67D0FECB7141AE4)
Полное имя : D:\Plotina 999\Plotina.999_2011.HDRip-AVC.mkv
Формат : Matroska
Версия формата : Version 4 / Version 2
Размер файла : 1,46 Гбайт
Продолжительность : 1 ч. 50 м.
Общий поток : 1890 Кбит/сек
Дата кодирования : UTC 2014-03-20 19:37:30
Программа кодирования : mkvmerge v6.8.0 ('Theme for Great Cities') 64bit built on Mar 2 2014 21:34:26
Библиотека кодирования : libebml v1.3.0 + libmatroska v1.4.1
Видео
Идентификатор : 1
Формат : AVC
Формат/Информация : Advanced Video Codec
Профиль формата : High@L4.1
Параметр CABAC формата : Да
Параметр ReFrames формата : 6 кадров
Идентификатор кодека : V_MPEG4/ISO/AVC
Продолжительность : 1 ч. 50 м.
Битрейт : 1632 Кбит/сек
Ширина : 1008 пикселей
Высота : 428 пикселей
Соотношение сторон : 2,35:1
Режим частоты кадров : Постоянный
Частота кадров : 23,976 кадра/сек
Цветовое пространство : YUV
Субдискретизация насыщенности : 4:2:0
Битовая глубина : 8 бит
Тип развёртки : Прогрессивная
Бит/(Пиксели*Кадры) : 0.158
Размер потока : 1,23 Гбайт (84%)
Библиотека кодирования : x264 core 138 r2356 a1d3d17
Настройки программы : cabac=1 / ref=6 / deblock=1:-3:-2 / analyse=0x3:0x113 / me=umh / subme=10 / psy=1 / psy_rd=1.00:0.05 / mixed_ref=1 / me_range=32 / chroma_me=1 / trellis=2 / 8x8dct=1 / cqm=0 / deadzone=21,11 / fast_pskip=0 / chroma_qp_offset=-3 / threads=9 / lookahead_threads=1 / sliced_threads=0 / nr=0 / decimate=0 / interlaced=0 / bluray_compat=0 / constrained_intra=0 / bframes=8 / b_pyramid=2 / b_adapt=2 / b_bias=0 / direct=3 / weightb=1 / open_gop=0 / weightp=2 / keyint=240 / keyint_min=24 / scenecut=40 / intra_refresh=0 / rc_lookahead=40 / rc=2pass / mbtree=1 / bitrate=1632 / ratetol=1.0 / qcomp=0.60 / qpmin=0 / qpmax=69 / qpstep=4 / cplxblur=20.0 / qblur=0.5 / ip_ratio=1.40 / aq=1:1.00
Язык : English
Default : Да
Forced : Нет
Аудио
Идентификатор : 2
Формат : AC-3
Формат/Информация : Audio Coding 3
Расширение режима : CM (complete main)
Параметр Endianness формата : Big
Идентификатор кодека : A_AC3
Продолжительность : 1 ч. 50 м.
Вид битрейта : Постоянный
Битрейт : 256 Кбит/сек
Каналы : 6 каналов
Расположение каналов : Front: L C R, Side: L R, LFE
Частота : 48,0 КГц
Битовая глубина : 16 бит
Метод сжатия : С потерями
Размер потока : 202 Мбайт (14%)
Язык : Russian
Default : Да
Forced : Нет
Текст #1
Идентификатор : 3
Формат : UTF-8
Идентификатор кодека : S_TEXT/UTF8
Идентификатор кодека/Информация : UTF-8 Plain Text
Язык : Russian
Default : Нет
Forced : Нет
Текст #2
Идентификатор : 4
Формат : UTF-8
Идентификатор кодека : S_TEXT/UTF8
Идентификатор кодека/Информация : UTF-8 Plain Text
Язык : English
Default : Нет
Forced : Нет
Меню
00:00:00.000 : en:00:00:00.000
00:05:38.755 : en:00:05:38.755
00:11:11.088 : en:00:11:11.088
00:19:41.598 : en:00:19:41.598
00:26:39.016 : en:00:26:39.016
00:31:39.816 : en:00:31:39.816
00:38:21.780 : en:00:38:21.780
00:43:54.051 : en:00:43:54.051
00:49:24.892 : en:00:49:24.892
00:54:03.160 : en:00:54:03.160
00:57:43.380 : en:00:57:43.380
01:02:01.638 : en:01:02:01.638
01:07:52.489 : en:01:07:52.489
01:13:22.819 : en:01:13:22.819
01:18:45.642 : en:01:18:45.642
01:23:57.955 : en:01:23:57.955
01:29:58.315 : en:01:29:58.315
01:33:56.553 : en:01:33:56.553
01:38:55.332 : en:01:38:55.332
01:43:54.151 : en:01:43:54.151

Скриншот c названием фильма

Скриншоты

Скачать

Скачать торрент! Плотина 999 / Проклятая волна / Dam999 (Сохан Рой / Sohan Roy) [2011, Индия, ОАЭ, Сингапур, фантастика, триллер, драма, приключения, HDRip-AVC] MVO (лицензия) + Sub Rus + Original Eng

Как скачивать? · Что такое торрент? · Рейтинг и ограничения

Сайт не распространяет и не хранит электронные версии произведений, а лишь предоставляет доступ к создаваемому пользователями каталогу ссылок на торрент-файлы, которые содержат только списки хеш-сумм

[Профиль] [ЛС]
Показать сообщения:    
Ответить на тему

Текущее время: Сегодня 05:51

Часовой пояс: GMT + 4



Вы не можете начинать темы
Вы не можете отвечать на сообщения
Вы не можете редактировать свои сообщения
Вы не можете удалять свои сообщения
Вы не можете голосовать в опросах
Вы не можете прикреплять файлы к сообщениям
Вы не можете скачивать файлы