Друзья друзей (Артем Аксененко, Араик Оганесян) [2013, комедия, BDRip-AVC]

Ответить на тему
 
Автор Сообщение

user ®

Стаж: 7 лет 10 месяцев

Сообщений: 20008

Пост Пост: #1 от 21-Мар-2014 21:55

[Цитировать]

Друзья друзей«Бодрая комедия»
Жанр: комедия
Год выпуска: 2013
Продолжительность: 01:30:27
Режиссёр: Артем Аксененко, Араик Оганесян
В ролях: Нюша Шурочкина,Гарик Харламов,Юрий Стоянов,Николай Наумов,Александр Ильин мл.,Тимур Батрутдинов,Александр Молочников,Андрей Гайдулян,Олег Верещагин,Александр Булатов
Описание: В канун Нового года пересекаются истории промоутера, впервые оставшегося дома с пятилетним ребенком, трех музыкантов из филармонии, решившихся на ограбление сурового бизнесмена, на домашнюю вечеринку к которому их отправил тот самый промоутер, и бедного студента, пригласившего на первое свидание в дорогой ресторан дочку того самого сурового бизнесмена. В результате, каждый из героев попадет в нелепые, пикантные, опасные, но все равно очень смешные ситуации, выбраться из которых им, конечно, помогут, друзья…
Доп. информация:

Качество видео: BDRip-AVC |Друзья друзей (2013) 1080p BD-Remux|
Формат видео: MKV
Видео: 1024 x 554 (1:85:1) at 23.976 fps AVC at 3005 Кбит/сек
Аудио: AC3 Dolby Digital; 448 kbps; 6 Ch; 48 kHz

MediaInfo

General
Unique ID : 226499232932574659669055388694993533550 (0xAA662A5EC4D60180AB8D6705A5DD7A6E)
Complete name : F:\Фильмы\Друзья друзей\Druzja.Druzey.2013.x264.BDRip.(AVC).mkv
Format : Matroska
Format version : Version 4 / Version 2
File size : 2.18 GiB
Duration : 1h 30mn
Overall bit rate : 3 451 Kbps
Movie name : Druzja.Druzey.2013.x264.BDRip.(AVC)
Encoded date : UTC 2014-02-08 19:36:40
Writing application : mkvmerge v6.7.0 ('Back to the Ground') 32bit built on Jan 8 2014 15:03:17
Writing library : libebml v1.3.0 + libmatroska v1.4.1
Video
ID : 1
Format : AVC
Format/Info : Advanced Video Codec
Format profile : High@L4.1
Format settings, CABAC : Yes
Format settings, ReFrames : 10 frames
Codec ID : V_MPEG4/ISO/AVC
Duration : 1h 30mn
Bit rate : 3 005 Kbps
Width : 1 024 pixels
Height : 554 pixels
Display aspect ratio : 1.85:1
Frame rate mode : Constant
Frame rate : 24.000 fps
Color space : YUV
Chroma subsampling : 4:2:0
Bit depth : 8 bits
Scan type : Progressive
Bits/(Pixel*Frame) : 0.221
Stream size : 1.85 GiB (85%)
Writing library : x264 core 140 r2377+40 929f149 tMod [8-bit@4:2:0 X86_64]
Encoding settings : cabac=1 / ref=10 / deblock=1:-2:-2 / analyse=0x3:0x133 / me=umh / subme=11 / psy=1 / fade_compensate=0.00 / psy_rd=1.00:0.20 / mixed_ref=1 / me_range=48 / chroma_me=1 / trellis=2 / 8x8dct=1 / cqm=0 / deadzone=21,11 / fast_pskip=0 / chroma_qp_offset=-3 / threads=6 / lookahead_threads=1 / sliced_threads=0 / nr=0 / decimate=0 / interlaced=0 / bluray_compat=0 / constrained_intra=0 / fgo=0 / bframes=13 / b_pyramid=2 / b_adapt=2 / b_bias=0 / direct=3 / weightb=1 / open_gop=0 / weightp=2 / keyint=240 / keyint_min=24 / scenecut=40 / intra_refresh=0 / rc=2pass / mbtree=0 / bitrate=3005 / ratetol=1.0 / qcomp=0.60 / qpmin=0:0:0 / qpmax=69:69:69 / qpstep=4 / cplxblur=20.0 / qblur=0.5 / ip_ratio=1.40 / pb_ratio=1.30 / aq=2:0.80 / aq-sensitivity=10.00 / aq-factor=1.00:1.00:1.00 / aq2=0 / aq3=0
Language : English
Default : Yes
Forced : No
Audio
ID : 2
Format : AC-3
Format/Info : Audio Coding 3
Mode extension : CM (complete main)
Format settings, Endianness : Big
Codec ID : A_AC3
Duration : 1h 30mn
Bit rate mode : Constant
Bit rate : 448 Kbps
Channel(s) : 6 channels
Channel positions : Front: L C R, Side: L R, LFE
Sampling rate : 48.0 KHz
Bit depth : 16 bits
Compression mode : Lossy
Stream size : 290 MiB (13%)
Title : Лицензия
Language : Russian
Default : Yes
Forced : No
Menu
00:00:00.000 : :Chapter 01
00:12:49.291 : :Chapter 02
00:23:00.416 : :Chapter 03
00:35:00.958 : :Chapter 04
00:44:41.708 : :Chapter 05
00:58:44.750 : :Chapter 06
01:09:09.583 : :Chapter 07
01:21:12.750 : :Chapter 08

Скриншот c названием фильма

Скриншоты

Скачать

Скачать торрент!

Как скачивать? · Что такое торрент? · Рейтинг и ограничения

Сайт не распространяет и не хранит электронные версии произведений, а лишь предоставляет доступ к создаваемому пользователями каталогу ссылок на торрент-файлы, которые содержат только списки хеш-сумм

[Профиль] [ЛС]
Показать сообщения:    
Ответить на тему

Текущее время: Сегодня 15:57

Часовой пояс: GMT + 4



Вы не можете начинать темы
Вы не можете отвечать на сообщения
Вы не можете редактировать свои сообщения
Вы не можете удалять свои сообщения
Вы не можете голосовать в опросах
Вы не можете прикреплять файлы к сообщениям
Вы не можете скачивать файлы