Полицейская История 2 / Police Story 2 / Ging chaat goo si juk jaap (Джеки Чан / Jackie Chan) [1988, Гонконг, комедия, боевик, криминал, HDRip] AVO (Кузнецов) + AVO (Живов) + VO (Belmann)

Ответить на тему
 
Автор Сообщение

user ®

Стаж: 11 лет

Сообщений: 15151

Пост Пост: #1 от 21-Мар-2014 10:15

[Цитировать]

Полицейская История 2 / Police Story 2 / Ging chaat goo si juk jaap
Страна: Гонконг
Жанр: комедия, боевик, криминал
Год выпуска: 1988
Продолжительность: 02:01:25
Перевод: Авторский (одноголосый закадровый) Сергей Кузнецов
Перевод 2: Авторский (одноголосый закадровый) Юрий Живов
Перевод 3: Одноголосый закадровый Jacob Belmann
Cубтитры: нет
Режиссер: Джеки Чан / Jackie Chan
В ролях: Джеки Чан, Мэгги Чун, Квок-Хун Лам, Билл Тун, Бенни Лай, Джон Чунг, Чарли Чо, Юэнь Чор, Бен Лам, Чи Фай Чан
Описание: На свободу выходит босс наркомафии Ку, но наркоторговля не остановлена, и первая его мысль после заключения — отомстить полицейскому Кевину Ченгу, упрятавшему его за решетку. Ку нанимает киллера, который, впрочем, явно не в себе…
Тем временем группа изощренных террористов пугает население серией взрывов в людных местах и вымогает 10 миллионов долларов у одной торговой фирмы. Справиться с этой ситуацией и спасти любимую девушку под силу только полицейскому Кевину Ченгу.
Доп. информация:
Видео из этой раздачи (СЭМПЛ)
Перевод Кузнецова
Перевод Живова
Перевод Belmannа с сайта Гланц.ру.
Все переводы имеют вставки Японца на расширенных местах. У Кузнецова также есть небольшие вставки Сонькина.
В контейнере только Кузнецов, остальные авторские переводчики - отдельные файлы.
Без отдельных дорожек размер релиза составляет 1.46 гб.

Качество видео: HDRip
Формат видео: AVI
Видео: XviD, 720x304 (2,35:1), 23.976 fps, 1525 kbps avg
Аудио:
1 - 48 khz, AC3 Dolby Digital, 2/0 (L,R) ch, ~192 kbps [Кузнецов] VHSRip
2 - 48 khz, AC3 Dolby Digital, 3/2 (L,R) ch, ~448 kbps [Живов]
3 - 48 khz, AC3 Dolby Digital, 2/0 (L,R) ch, ~192 kbps [Belmann]

MediaInfo

Общее
Полное имя : E:\Альберт\Downloads\Полицейская История 2\Полицейская История 2.avi
Формат : AVI
Формат/Информация : Audio Video Interleave
Размер файла : 1,46 Гбайт
Продолжительность : 2 ч. 1 м.
Общий поток : 1726 Кбит/сек
Программа кодирования : VirtualDubMod 1.5.10.2 (build 2540/release)
Библиотека кодирования : VirtualDubMod build 2540/release
Видео
Идентификатор : 0
Формат : MPEG-4 Visual
Профиль формата : Advanced Simple@L5
Параметр BVOP формата : 1
Параметр QPel формата : Нет
Параметр GMC формата : Без точки перехода
Параметр матрицы формата : Default (MPEG)
Идентификатор кодека : XVID
Идентификатор кодека/Подсказка : XviD
Продолжительность : 2 ч. 1 м.
Битрейт : 1525 Кбит/сек
Ширина : 720 пикселей
Высота : 304 пикселя
Соотношение сторон : 2,35:1
Частота кадров : 23,976 кадра/сек
Цветовое пространство : YUV
Субдискретизация насыщенности : 4:2:0
Битовая глубина : 8 бит
Тип развёртки : Прогрессивная
Метод сжатия : С потерями
Бит/(Пиксели*Кадры) : 0.291
Размер потока : 1,29 Гбайт (88%)
Библиотека кодирования : XviD 1.2.1 (UTC 2008-12-04)
Аудио
Идентификатор : 1
Формат : AC-3
Формат/Информация : Audio Coding 3
Расширение режима : CM (complete main)
Параметр Endianness формата : Big
Идентификатор кодека : 2000
Продолжительность : 2 ч. 1 м.
Вид битрейта : Постоянный
Битрейт : 192 Кбит/сек
Каналы : 2 канала
Расположение каналов : Front: L R
Частота : 48,0 КГц
Битовая глубина : 16 бит
Метод сжатия : С потерями
Размер потока : 167 Мбайт (11%)
Выравнивание : Разделение по промежуткам
Продолжительность промежутка : 42 мс. (1,00 видеокадр)
Время предзагрузки промежутка : 500 мс.

Скриншот c названием фильма

Скриншоты

Скачать

Скачать торрент! Полицейская История 2 / Police Story 2 / Ging chaat goo si juk jaap (Джеки Чан / Jackie Chan) [1988, Гонконг, комедия, боевик, криминал, HDRip] AVO (Кузнецов) + AVO (Живов) + VO (Belmann)

Как скачивать? · Что такое торрент? · Рейтинг и ограничения

Сайт не распространяет и не хранит электронные версии произведений, а лишь предоставляет доступ к создаваемому пользователями каталогу ссылок на торрент-файлы, которые содержат только списки хеш-сумм

[Профиль] [ЛС]
Показать сообщения:    
Ответить на тему

Текущее время: Сегодня 12:47

Часовой пояс: GMT + 4



Вы не можете начинать темы
Вы не можете отвечать на сообщения
Вы не можете редактировать свои сообщения
Вы не можете удалять свои сообщения
Вы не можете голосовать в опросах
Вы не можете прикреплять файлы к сообщениям
Вы не можете скачивать файлы