Zолушка (Сергей Иванов, Антон Борматов) [2012 г., мелодрама, комедия, HDRip]

Ответить на тему
 
Автор Сообщение

user ®

Стаж: 7 лет 7 месяцев

Сообщений: 20008

Пост Пост: #1 от 21-Мар-2014 10:15

[Цитировать]

-Zолушка--Год выпуска: 2012
Жанр: мелодрама, комедия
Продолжительность: 01:27:40--Режиссер: Антон Борматов (в титрах Сергей Иванов)--В ролях:
Кристина Асмус, Никита Ефремов, Артем Ткаченко, Нонна Гришаева, Маргарита Исайкова, Юрий Стоянов, Елизавета Боярская, Сергей Бурунов, Маргарита Бычкова, Виталий Гребенников, Александр Цекало, Семен Стругачев...
--Описание:
Героиня фильма, Маша Крапивина, — пока еще не красавица, и не то чтобы сказочная умница. Обычная девушка, рискнувшая, подобно тысячам ее сверстниц из самых разных уголков страны, покорить Москву, покинув свой родной провинциальный городок. Вечером учится, а с утра до вечера работает «на вредном производстве» — горничной в очень состоятельной семье. Крупу, конечно, не перебирает, но работы хватает: только успевай крутиться, чтобы угодить властной хозяйке и двум ее взбалмошным дочерям.
А Маша, между тем, как и миллионы других девчонок, по уши влюблена в известного певца Алексея Королевича. Она — его самая преданная фанатка, увы, без малейшего шанса на знакомство с предметом своих девичьих грёз. И надо же такому случиться — «знатное» семейство получает приглашение на бал, а точнее, закрытую вечеринку, где соберется вся культурная элита страны, а главное — там будет выступать ОН! И совершенно очевидно, что с этой минуты Маша готова на любые жертвы, чтобы тоже оказаться там. Но как? На помощь нашей Золушке, конечно же, приходит добрая фея в лице родной тетки Агнии, главного редактора издания «Желтый PRESS». Она готова добыть для «бедной родственницы» заветное приглашение, но с одним условием: Маша отправится на вечеринку с непростым и довольно пикантным журналистским заданием…
-Доп. информация:- - Сэмпл Рип совместим с бытовыми DVD-проигрывателями. --Качество видео: HDLRip
Формат видео: AVI
Видео: 720x384 (1.875:1), 25 fps, XviD build 73 ~1994 kbps avg, 0.29 bit/pixel
Аудио: 48 kHz, AC3 Dolby Digital, 3/2 (L,C,R,l,r) + LFE ch, 384 kbps-

MediaInfo

General
Complete name :\Zolushka_(2012).HDRip.XviD.ac3_[All.Films][RG].avi
Format : AVI
Format/Info : Audio Video Interleave
File size : 1.46 GiB
Duration : 1h 27mn
Overall bit rate : 2 388 Kbps
Movie name : Zолушка (2012) HDRip | [All.Films][RG]
Director :
Writing application : VirtualDubMod 1.5.10.3 | www.virtualdub-fr.org || (build 2550/release)
Writing library : VirtualDubMod build 2550/release
Video
ID : 0
Format : MPEG-4 Visual
Format profile : Advanced Simple@L5
Format settings, BVOP : 2
Format settings, QPel : No
Format settings, GMC : No warppoints
Format settings, Matrix : Custom
Codec ID : XVID
Codec ID/Hint : XviD
Duration : 1h 27mn
Bit rate : 1 994 Kbps
Width : 720 pixels
Height : 384 pixels
Display aspect ratio : 1.85:1
Frame rate : 25.000 fps
Color space : YUV
Chroma subsampling : 4:2:0
Bit depth : 8 bits
Scan type : Progressive
Compression mode : Lossy
Bits/(Pixel*Frame) : 0.289
Stream size : 1.22 GiB (84%)
Writing library : XviD 73
Audio
ID : 1
Format : AC-3
Format/Info : Audio Coding 3
Mode extension : CM (complete main)
Format settings, Endianness : Big
Codec ID : 2000
Duration : 1h 27mn
Bit rate mode : Constant
Bit rate : 384 Kbps
Channel count : 6 channels
Channel positions : Front: L C R, Side: L R, LFE
Sampling rate : 48.0 KHz
Bit depth : 16 bits
Compression mode : Lossy
Stream size : 241 MiB (16%)
Alignment : Split accross interleaves
Interleave, duration : 40 ms (1.00 video frame)
Interleave, preload duration : 500 ms

Скриншоты

Скриншот с названием


Скачать

Скачать торрент!

Как скачивать? · Что такое торрент? · Рейтинг и ограничения

Сайт не распространяет и не хранит электронные версии произведений, а лишь предоставляет доступ к создаваемому пользователями каталогу ссылок на торрент-файлы, которые содержат только списки хеш-сумм

[Профиль] [ЛС]
Показать сообщения:    
Ответить на тему

Текущее время: Сегодня 06:58

Часовой пояс: GMT + 4



Вы не можете начинать темы
Вы не можете отвечать на сообщения
Вы не можете редактировать свои сообщения
Вы не можете удалять свои сообщения
Вы не можете голосовать в опросах
Вы не можете прикреплять файлы к сообщениям
Вы не можете скачивать файлы