Тайна Зодиака / The Zodiac Mystery (Шин Чжи Мань / Shing Zhi-Man) [2012, Китай, драма, мистика, HDRip] Sub Rus

Ответить на тему
 
Автор Сообщение

user ®

Стаж: 11 лет

Сообщений: 15151

Пост Пост: #1 от 21-Мар-2014 00:50

[Цитировать]

Тайна Зодиака / The Zodiac Mystery
Страна: Китай
Жанр: драма, мистика
Год выпуска: 2012
Продолжительность: 01:38:45-Перевод: Субтитры
Cубтитры: русские (вшитые)
Оригинальная аудиодорожка: Китайская-Режиссер: Шин Чжи Мань / Shing Zhi-Man
В ролях: Сон Нин, Цяо Рэнь Лян, Гань Вэй, Тун Да Вэй, Лю Янь, Цинь Хао, Ду Хай Тао-Описание: Всё начинается с писательницы Тан Линь, которая борется с психическими расстройствами. Вышедшая книга "Тайна зодиака" подписана её именем, что ещё более странно, в книге задействованы имена её друзей детства/ После встречи друзей, описанные в книги события, начинают обретать реальность...- --Качество видео: HDRip (720p)
Формат видео: AVI
Видео: XviD, 720x304 (2.37:1), 23.976 fps, 1917 kbps avg, 0.36 bit/pixel
Аудио: Китайский MPEG layer 3, 192 kbps-

MediaInfo

Format : AVI
Format/Info : Audio Video Interleave
File size : 1.46 GiB
Duration : 1h 38mn
Overall bit rate : 2 119 Kbps
Writing application : VirtualDubMod 1.5.10.3 | www.virtualdub-fr.org || (build 2550/release)
Writing library : VirtualDubMod build 2550/release
Video
ID : 0
Format : MPEG-4 Visual
Format profile : Advanced Simple@L5
Format settings, BVOP : 1
Format settings, QPel : No
Format settings, GMC : No warppoints
Format settings, Matrix : Custom
Codec ID : XVID
Codec ID/Hint : XviD
Duration : 1h 38mn
Bit rate : 1 918 Kbps
Width : 720 pixels
Height : 304 pixels
Display aspect ratio : 2.35:1
Frame rate : 23.976 fps
Color space : YUV
Chroma subsampling : 4:2:0
Bit depth : 8 bits
Scan type : Progressive
Compression mode : Lossy
Bits/(Pixel*Frame) : 0.365
Stream size : 1.32 GiB (90%)
Writing library : XviD 73
Audio
ID : 1
Format : MPEG Audio
Format version : Version 1
Format profile : Layer 3
Codec ID : 55
Codec ID/Hint : MP3
Duration : 1h 38mn
Bit rate mode : Constant
Bit rate : 192 Kbps
Channel(s) : 2 channels
Sampling rate : 48.0 KHz
Compression mode : Lossy
Stream size : 136 MiB (9%)
Alignment : Aligned on interleaves
Interleave, duration : 42 ms (1.00 video frame)
Interleave, preload duration : 504 ms

Скриншот с названием

Скриншоты

Скачать

Скачать торрент! Тайна Зодиака / The Zodiac Mystery (Шин Чжи Мань / Shing Zhi-Man) [2012, Китай, драма, мистика, HDRip] Sub Rus

Как скачивать? · Что такое торрент? · Рейтинг и ограничения

Сайт не распространяет и не хранит электронные версии произведений, а лишь предоставляет доступ к создаваемому пользователями каталогу ссылок на торрент-файлы, которые содержат только списки хеш-сумм

[Профиль] [ЛС]
Показать сообщения:    
Ответить на тему

Текущее время: Сегодня 11:10

Часовой пояс: GMT + 4



Вы не можете начинать темы
Вы не можете отвечать на сообщения
Вы не можете редактировать свои сообщения
Вы не можете удалять свои сообщения
Вы не можете голосовать в опросах
Вы не можете прикреплять файлы к сообщениям
Вы не можете скачивать файлы