Марионетка / A Puppet / Marionette / Kkogdugagsi (Пак Се Ёль / Park Se-yeol) [2013, Южная Корея, триллер, HDRip] DVO

Ответить на тему
 
Автор Сообщение

user ®

Стаж: 13 лет

Сообщений: 15071

Пост Пост: #1 от 20-Мар-2014 13:00

[Цитировать]

Марионетка / A Puppet / Marionette / Kkogdugagsi
Страна: Южная Корея
Жанр: триллер
Год выпуска: 2013
Продолжительность: 01:25:34-Перевод: Любительский (двухголосый закадровый) den904 & DeadSno по субтитрам DeadSno
Cубтитры: нет
Оригинальная аудиодорожка: нет-Режиссер: Пак Се Ёль / Park Se-yeol
В ролях: И Чжон Су, Гу Чжи Сон, Ом Ги Чжун, Хан Со Ён-Описание: Чжи Хун - психиатр, который цинично смотрит на мир и не верит в любовь. И вот однажды, к нему на прием приходит необычная пациентка Хён Чжин, которая страдает от галлюцинаций. Чтобы разобраться с её проблемой Чжи Хун решает задействовать гипноз. Но, не тут-то было, подсознание Хён Чжин скрывает много страшных тайн, так ещё и Чжи Хун стал чувствовать влечение к своей пациентке....- -Релиз группы
-Качество видео: HDRip (720p)
Формат видео: AVI
Видео: XviD, 720x400 (1.80:1), 23.976 fps, 2081 kbps avg, 0.30 bit/pixel
Аудио: Русский MPEG layer 3, 192 kbps-

Дополнительная информация

Звук: Гуннлауг
Постер: Altruist

MediaInfo

Format : AVI
Format/Info : Audio Video Interleave
File size : 1.36 GiB
Duration : 1h 25mn
Overall bit rate : 2 283 Kbps
Writing application : VirtualDubMod 1.5.10.3 | www.virtualdub-fr.org || (build 2550/release)
Writing library : VirtualDubMod build 2550/release
Video
ID : 0
Format : MPEG-4 Visual
Format profile : Advanced Simple@L5
Format settings, BVOP : 1
Format settings, QPel : No
Format settings, GMC : No warppoints
Format settings, Matrix : Custom
Codec ID : XVID
Codec ID/Hint : XviD
Duration : 1h 25mn
Bit rate : 2 082 Kbps
Width : 720 pixels
Height : 400 pixels
Display aspect ratio : 16:9
Frame rate : 23.976 fps
Color space : YUV
Chroma subsampling : 4:2:0
Bit depth : 8 bits
Scan type : Progressive
Compression mode : Lossy
Bits/(Pixel*Frame) : 0.301
Stream size : 1.24 GiB (91%)
Writing library : XviD 73
Audio
ID : 1
Format : MPEG Audio
Format version : Version 1
Format profile : Layer 3
Codec ID : 55
Codec ID/Hint : MP3
Duration : 1h 25mn
Bit rate mode : Constant
Bit rate : 192 Kbps
Channel(s) : 2 channels
Sampling rate : 48.0 KHz
Compression mode : Lossy
Stream size : 118 MiB (8%)
Alignment : Aligned on interleaves
Interleave, duration : 42 ms (1.00 video frame)
Interleave, preload duration : 504 ms

Скриншот с названием

Скриншоты

Скачать

Скачать торрент! Марионетка / A Puppet / Marionette / Kkogdugagsi (Пак Се Ёль / Park Se-yeol) [2013, Южная Корея, триллер, HDRip] DVO

Как скачивать? · Что такое торрент? · Рейтинг и ограничения

Сайт не распространяет и не хранит электронные версии произведений, а лишь предоставляет доступ к создаваемому пользователями каталогу ссылок на торрент-файлы, которые содержат только списки хеш-сумм

[Профиль] [ЛС]
Показать сообщения:    
Ответить на тему

Текущее время: Сегодня 18:18

Часовой пояс: GMT + 4



Вы не можете начинать темы
Вы не можете отвечать на сообщения
Вы не можете редактировать свои сообщения
Вы не можете удалять свои сообщения
Вы не можете голосовать в опросах
Вы не можете прикреплять файлы к сообщениям
Вы не можете скачивать файлы