Добро пожаловать в Донгмакгол / Welkkeom tu Dongmakgol (Кван-Хюн Пак / Kwang-Hyun Park) [2005, Южная Корея, драма, комедия, военный, BDRip] AVO (Сербин)

Ответить на тему
 
Автор Сообщение

user ®

Стаж: 11 лет

Сообщений: 15151

Пост Пост: #1 от 20-Мар-2014 13:00

[Цитировать]

Добро пожаловать в Донгмакгол / Welkkeom tu Dongmakgol
Год выпуска: 2005
Страна: Южная Корея
Жанр: драма, комедия, военный
Продолжительность: 02:12:52
Перевод: Авторский (одноголосый закадровый) - Ю. Сербин
Субтитры: нет
Режиссер: Кван-Хюн Пак / Kwang-Hyun Park
В ролях: Чон Чжэ Ён (Chief Comrade Lee Su-Hwa), Син Ха Гюн (2nd Lt. Pyo Hyun-Chul), Кан Хё Чжун (Yeo-il), Лим Ха Рён (Jang Young-hee, (North)), Со Чжэ Кён (Army Medic Mun Sang-sang, (South)), Рю Док Хван (Seo Taek-ki, (North)), Steve Taschler (Smith), Чжэ-Чжин Юнг, Young-yi Lee, Nam-Hee Park, Чо Док Хён, Ю Сын Мок-Мировая премьера: 4 августа 2005-Описание: Жизнь сельских жителей переворачивается с ног на голову, когда к ним с неба падает сбитый американский летчик. А спустя некоторое время в деревню вторгаются солдаты Северной и Южной Кореи.-Рейтинг
kinopoisk.ru: 8.262 (136)
imdb.com: 7.90 (3698)
-Качество: BDRip (Исходник: Blu-Ray Disk)
Формат: AVI //SAMPLE//
Видео: 704x304 (2.32:1), 23.976 fps, XviD build 65 ~1897 kbps avg, 0.37 bit/pixel
Аудио: 48 kHz, AC3 Dolby Digital, 3/2 (L,C,R,l,r) + LFE ch, ~448 kbps

MediaInfo

Общее
Полное имя : F:\Video\AVI\Films\Dobro.Pozhalovat.V.Dongmakgol.2005.RUS.BDRip.XviD.AC3.-AllFilms\Dobro.Pozhalovat.V.Dongmakgol.2005.RUS.BDRip.XviD.AC3.-AllFilms.avi
Формат : AVI
Формат/Информация : Audio Video Interleave
Профиль формата : OpenDML
Размер файла : 2,18 Гбайт
Продолжительность : 2 ч. 12 м.
Общий поток : 2353 Кбит/сек
Название фильма : Добро пожаловать в Донгмакгол / Welkkeom tu Dongmakgol (2005)
Режиссёр : Shevon (Blu-Ray Disk)
Программа кодирования : VirtualDubMod 1.5.10.3 | www.virtualdub-fr.org || (build 2550/release)
Правообладатель :
Видео
Идентификатор : 0
Формат : MPEG-4 Visual
Профиль формата : Advanced Simple@L5
Параметр BVOP формата : 1
Параметр QPel формата : Нет
Параметр GMC формата : Без точки перехода
Параметр матрицы формата : Выборочная
Идентификатор кодека : XVID
Идентификатор кодека/Подсказка : XviD
Продолжительность : 2 ч. 12 м.
Битрейт : 1893 Кбит/сек
Ширина : 704 пикселя
Высота : 304 пикселя
Соотношение сторон : 2,35:1
Частота кадров : 23,976 кадра/сек
Цветовое пространство : YUV
Субдискретизация насыщенности : 4:2:0
Битовая глубина : 8 бит
Тип развёртки : Прогрессивная
Метод сжатия : С потерями
Бит/(Пиксели*Кадры) : 0.369
Размер потока : 1,76 Гбайт (80%)
Библиотека кодирования : XviD 65
Аудио
Идентификатор : 1
Формат : AC-3
Формат/Информация : Audio Coding 3
Расширение режима : CM (complete main)
Параметр Endianness формата : Big
Идентификатор кодека : 2000
Продолжительность : 2 ч. 12 м.
Вид битрейта : Постоянный
Битрейт : 448 Кбит/сек
Каналы : 6 каналов
Расположение каналов : Front: L C R, Side: L R, LFE
Частота : 48,0 КГц
Битовая глубина : 16 бит
Метод сжатия : С потерями
Размер потока : 426 Мбайт (19%)
Выравнивание : Разделение по промежуткам
Продолжительность промежутка : 42 мс. (1,00 видеокадр)
Время предзагрузки промежутка : 500 мс.

Скриншоты

-За перевод Юрия Сербина огромное спасибо: hdrmv12, Luka69, tambov68, nekazz, muha, Кириллка, denismgn1987, Andy_Ko, Dervish - HDCLUB; Foots (AnryV), sir, safreks, Roman Lee, zeleniy, Nadoelo, Palmer Eldritch, I_Am_Hell, jorn2, carnivale, Эдуард, Guyver, Bilko, ZeDOK, 2vova2 - E180.
Скачать

Скачать торрент! Добро пожаловать в Донгмакгол / Welkkeom tu Dongmakgol (Кван-Хюн Пак / Kwang-Hyun Park) [2005, Южная Корея, драма, комедия, военный, BDRip] AVO (Сербин)

Как скачивать? · Что такое торрент? · Рейтинг и ограничения

Сайт не распространяет и не хранит электронные версии произведений, а лишь предоставляет доступ к создаваемому пользователями каталогу ссылок на торрент-файлы, которые содержат только списки хеш-сумм

[Профиль] [ЛС]
Показать сообщения:    
Ответить на тему

Текущее время: Сегодня 16:29

Часовой пояс: GMT + 4



Вы не можете начинать темы
Вы не можете отвечать на сообщения
Вы не можете редактировать свои сообщения
Вы не можете удалять свои сообщения
Вы не можете голосовать в опросах
Вы не можете прикреплять файлы к сообщениям
Вы не можете скачивать файлы