Полицейская История / Police Story / Ging chat goo si (Джеки Чан / Jackie Chan) [1985, Гонконг, Комедия, боевик, криминал, HDRip] MVO (Пятый Канал) + AVO (Кузнецов) + AVO (Живов) + VO (Belmann)

Ответить на тему
 
Автор Сообщение

user ®

Стаж: 13 лет

Сообщений: 15071

Пост Пост: #1 от 20-Мар-2014 09:50

[Цитировать]

Полицейская История / Police Story / Ging chat goo si
Страна: Гонконг
Жанр: Комедия, боевик, криминал
Год выпуска: 1985
Продолжительность: 01:39:56
Перевод: Профессиональный (многоголосый закадровый) Пятый Канал
Перевод 2: Авторский (одноголосый закадровый) Сергей Кузнецов
Перевод 3: Авторский (одноголосый закадровый) Юрий Живов
Перевод 4: Одноголосый закадровый - Jacob Belmann
Cубтитры: нет
Режиссер: Джеки Чан / Jackie Chan
В ролях: Джеки Чан, Мэгги Чун, Бриджит Лин, Квок-Хун Лам, Билл Тун, Юэнь Чор, Чарли Чо, Чи-Вин Лау, Фунг Харк-Он, Хин Йинг Кэм
Описание: В результате удачно проведенной облавы в руки полиции попадает босс наркомафии Чи. Одному из полицейских, Кевину, принимавшему непосредственное участие в аресте, поручают охрану секретарши преступника, которая проходит по делу в качестве главного свидетеля. Но в день суда она исчезает. Только разыскав девушку и арестовав Чи, Кевин сможет снять с себя подозрение в соучастии…
Доп. информация:
Перевод Пятого Канала
Озвучен отделом дублирования телерадиокомпании Петербург 5 Канал.
Перевод Кузнецова team_6strun. В переводе несколько вставок Сонькина и двухголоски REN-TV.
Перевод Живова из бывшей раздачи в звуковой дорожке на трекере, кто выкладывал дорожку уже не помню.
Перевод Belmannа с сайта Гланца.
В контейнере только многоголосый и Кузнецова переводы, остальные - отдельные файлы.
Без отдельных дорожек размер релиза составляет 1.42 гб.

Качество видео: HDRip
Формат видео: AVI
Видео: XviD, 720x304 (2,35:1), 23.976 fps, 1637 kbps avg
Аудио:
1 - 48 khz, AC3 Dolby Digital, 2/0 (L,R) ch, ~192 kbps [Пятый Канал] SATRip
2 - 48 khz, AC3 Dolby Digital, 2/0 (L,R) ch, ~192 kbps [Кузнецов] VHSRip
3 - 48 khz, AC3 Dolby Digital, 2/0 (L,R) ch, ~160 kbps [Живов] DVDRip
4 - 48 khz, AC3 Dolby Digital, 2/0 (L,R) ch, ~192 kbps [Belmann]

MediaInfo

Общее
Полное имя : E:\Альберт\Downloads\Police Story.1985.HDRip.XviD.AVO.1400MB rip by [Assassin's Creed ]\Полицейская История.avi
Формат : AVI
Формат/Информация : Audio Video Interleave
Размер файла : 1,40 Гбайт
Продолжительность : 1 ч. 39 м.
Общий поток : 2004 Кбит/сек
Программа кодирования : VirtualDubMod 1.5.10.2 (build 2540/release)
Библиотека кодирования : VirtualDubMod build 2540/release
Видео
Идентификатор : 0
Формат : MPEG-4 Visual
Профиль формата : Advanced Simple@L5
Параметр BVOP формата : 1
Параметр QPel формата : Нет
Параметр GMC формата : Без точки перехода
Параметр матрицы формата : Default (MPEG)
Идентификатор кодека : XVID
Идентификатор кодека/Подсказка : XviD
Продолжительность : 1 ч. 39 м.
Битрейт : 1637 Кбит/сек
Ширина : 720 пикселей
Высота : 304 пикселя
Соотношение сторон : 2,35:1
Частота кадров : 23,976 кадра/сек
Цветовое пространство : YUV
Субдискретизация насыщенности : 4:2:0
Битовая глубина : 8 бит
Тип развёртки : Прогрессивная
Метод сжатия : С потерями
Бит/(Пиксели*Кадры) : 0.312
Размер потока : 1,14 Гбайт (82%)
Библиотека кодирования : XviD 1.2.1 (UTC 2008-12-04)
Аудио #1
Идентификатор : 1
Формат : AC-3
Формат/Информация : Audio Coding 3
Расширение режима : CM (complete main)
Параметр Endianness формата : Big
Идентификатор кодека : 2000
Продолжительность : 1 ч. 39 м.
Вид битрейта : Постоянный
Битрейт : 192 Кбит/сек
Каналы : 2 канала
Расположение каналов : Front: L R
Частота : 48,0 КГц
Битовая глубина : 16 бит
Метод сжатия : С потерями
Размер потока : 137 Мбайт (10%)
Выравнивание : Разделение по промежуткам
Продолжительность промежутка : 42 мс. (1,00 видеокадр)
Время предзагрузки промежутка : 500 мс.
Аудио #2
Идентификатор : 2
Формат : AC-3
Формат/Информация : Audio Coding 3
Расширение режима : CM (complete main)
Параметр Endianness формата : Big
Идентификатор кодека : 2000
Продолжительность : 1 ч. 39 м.
Вид битрейта : Постоянный
Битрейт : 160 Кбит/сек
Каналы : 2 канала
Расположение каналов : Front: L R
Частота : 48,0 КГц
Битовая глубина : 16 бит
Метод сжатия : С потерями
Размер потока : 114 Мбайт (8%)
Выравнивание : Разделение по промежуткам
Продолжительность промежутка : 42 мс. (1,00 видеокадр)
Время предзагрузки промежутка : 500 мс.

Скриншот c названием фильма

Скриншоты

Скачать

Скачать торрент! Полицейская История / Police Story / Ging chat goo si (Джеки Чан / Jackie Chan) [1985, Гонконг, Комедия, боевик, криминал, HDRip] MVO (Пятый Канал) + AVO (Кузнецов) + AVO (Живов) + VO (Belmann)

Как скачивать? · Что такое торрент? · Рейтинг и ограничения

Сайт не распространяет и не хранит электронные версии произведений, а лишь предоставляет доступ к создаваемому пользователями каталогу ссылок на торрент-файлы, которые содержат только списки хеш-сумм

[Профиль] [ЛС]
Показать сообщения:    
Ответить на тему

Текущее время: Сегодня 18:11

Часовой пояс: GMT + 4



Вы не можете начинать темы
Вы не можете отвечать на сообщения
Вы не можете редактировать свои сообщения
Вы не можете удалять свои сообщения
Вы не можете голосовать в опросах
Вы не можете прикреплять файлы к сообщениям
Вы не можете скачивать файлы