Спасение генерала Яна / Saving General Yang (Ронни Ю / Ronny Yu) [2013, Гонконг, Китай, приключения, биография, боевик, HDRip] DVO [Ворон ft. Misa]

Ответить на тему
 
Автор Сообщение

user ®

Стаж: 11 лет

Сообщений: 15151

Пост Пост: #1 от 20-Мар-2014 09:50

[Цитировать]

Спасение генерала Яна / Saving General Yang- -Страна: Гонконг, Китай
Жанр: приключения, биография, боевик
Год выпуска: 2013
Продолжительность: 01:41:47-Перевод: Любительский (двухголосый закадровый) [Ворон ft. Misa]-Cубтитры: нет
Оригинальная аудиодорожка: нет
Режиссер: Ронни Ю / Ronny Yu
В ролях: Сюй Фань, Адам Чэн, Экин Чэн, Бо Юй, Вик Чоу, Ли Чэнь, Рэймонд Лам, Чун Ву, Синьбо Фу, Шао Бин...
Описание: Во времена династии Сун семья Ян была одним из наиболее влиятельных семейств в китайской империи. Когда генерал Ян в результате предательства попал в ловушку, семь его сыновей отправляются спасать отца.
Качество видео: HDRip
Формат видео: AVI
Видео: MPEG-4 Visual at 883 Кбит/сек; 688 x 288 (2.389) at 24.000 fps
Аудио: MPEG Audio at 128 Кбит/сек; 2 канала, 48,0 КГц
Релиз от -

MediaInfo

Общее
Полное имя : D:\Фильмы\Азиатские\Спасение генерала Яна\Saving General Yang.2013.HDRip.XviD.MP3. 745MB.rip by [Assassin's Creed].avi
Формат : AVI
Формат/Информация : Audio Video Interleave
Размер файла : 743 Мбайт
Продолжительность : 1 ч. 41 м.
Общий поток : 1021 Кбит/сек
Программа кодирования : VirtualDubMod 1.5.10.3 | www.virtualdub-fr.org || (build 2550/release)
Библиотека кодирования : VirtualDubMod build 2550/release
Видео
Идентификатор : 0
Формат : MPEG-4 Visual
Профиль формата : Advanced Simple@L5
Параметр BVOP формата : 2
Параметр QPel формата : Нет
Параметр GMC формата : Без точки перехода
Параметр матрицы формата : Default (H.263)
Идентификатор кодека : XVID
Идентификатор кодека/Подсказка : XviD
Продолжительность : 1 ч. 41 м.
Битрейт : 883 Кбит/сек
Ширина : 688 пикселей
Высота : 288 пикселей
Соотношение сторон : 2,40:1
Частота кадров : 24,000 кадра/сек
Цветовое пространство : YUV
Субдискретизация насыщенности : 4:2:0
Битовая глубина : 8 бит
Тип развёртки : Прогрессивная
Метод сжатия : С потерями
Бит/(Пиксели*Кадры) : 0.186
Размер потока : 643 Мбайт (87%)
Библиотека кодирования : XviD 1.2.1 (UTC 2008-12-04)
Аудио
Идентификатор : 1
Формат : MPEG Audio
Версия формата : Version 1
Профиль формата : Layer 3
Идентификатор кодека : 55
Идентификатор кодека/Подсказка : MP3
Продолжительность : 1 ч. 41 м.
Вид битрейта : Постоянный
Битрейт : 128 Кбит/сек
Каналы : 2 канала
Частота : 48,0 КГц
Метод сжатия : С потерями
Размер потока : 93,2 Мбайт (13%)
Выравнивание : Соединение по промежуткам
Продолжительность промежутка : 42 мс. (1,00 видеокадр)
Время предзагрузки промежутка : 504 мс.
Библиотека кодирования : LAME3.99r
Настройки программы : -m s -V 4 -q 2 -lowpass 17 -b 128

Скриншот c названием фильма

Скриншоты

Скачать

Скачать торрент! Спасение генерала Яна / Saving General Yang (Ронни Ю / Ronny Yu) [2013, Гонконг, Китай, приключения, биография, боевик, HDRip] DVO [Ворон ft. Misa]

Как скачивать? · Что такое торрент? · Рейтинг и ограничения

Сайт не распространяет и не хранит электронные версии произведений, а лишь предоставляет доступ к создаваемому пользователями каталогу ссылок на торрент-файлы, которые содержат только списки хеш-сумм

[Профиль] [ЛС]
Показать сообщения:    
Ответить на тему

Текущее время: Сегодня 18:32

Часовой пояс: GMT + 4



Вы не можете начинать темы
Вы не можете отвечать на сообщения
Вы не можете редактировать свои сообщения
Вы не можете удалять свои сообщения
Вы не можете голосовать в опросах
Вы не можете прикреплять файлы к сообщениям
Вы не можете скачивать файлы