Покорители гор (Реваз Габриадзе, Амиран Дарсавелидзе) [1977, Комедия, короткометражный, DVB]

Ответить на тему
 
Автор Сообщение

user ®

Стаж: 7 лет 7 месяцев

Сообщений: 20008

Пост Пост: #1 от 20-Мар-2014 01:30

[Цитировать]

Покорители гор
Жанр: Комедия, короткометражный
Год выпуска: 1977
Продолжительность: 00:19:02
Режиссёр: Реваз Габриадзе, Амиран Дарсавелидзе
В ролях: Кахи Кавсадзе, Баадур Цуладзе, Гиви Берикашвили, Григол Грдзелишвили, Джими (Джишмер) Ломидзе, Михаил Симхаев, Нодар Чогошвили.
Описание: Фильм про грузинских альпинистов!
Покорители гор — короткометражный фильм, Грузия-фильм, 1977, Комедия. Новелла из цикла короткометражных фильмов о веселых приключениях трёх дорожных мастеров.
«Добровольная» запись в секцию альпинизма вылилась в плановое покорение местных вершин, при полном отсутствии каких-либо навыков ориентирования.
Качество видео: DVB
Формат видео: MPG
Видео: 720x576 (4:3) @ 768x576, 25.000 fps, MPEG-2 Video, ~4830 Kbps, 0.466 bits/pixel
Аудио: 48.0 KHz, MPEG-1 Audio layer 2, 2 ch, 192 Kbps

MediaInfo

General
Complete name : Покорители гор.1977.mpg
Format : MPEG-PS
File size : 698 MiB
Duration : 19mn 2s
Overall bit rate mode : Variable
Overall bit rate : 5 124 Kbps
Video
ID : 224 (0xE0)
Format : MPEG Video
Format version : Version 2
Format profile : Main@Main
Format settings, BVOP : Yes
Format settings, Matrix : Custom
Format settings, GOP : M=3, N=36
Duration : 19mn 2s
Bit rate mode : Variable
Bit rate : 4 830 Kbps
Maximum bit rate : 15.0 Mbps
Width : 720 pixels
Height : 576 pixels
Display aspect ratio : 4:3
Frame rate : 25.000 fps
Standard : PAL
Color space : YUV
Chroma subsampling : 4:2:0
Bit depth : 8 bits
Scan type : Interlaced
Scan order : Top Field First
Compression mode : Lossy
Bits/(Pixel*Frame) : 0.466
Time code of first frame : 00:00:00:00
Time code source : Group of pictures header
Stream size : 658 MiB (94%)
Audio
ID : 192 (0xC0)
Format : MPEG Audio
Format version : Version 1
Format profile : Layer 2
Duration : 19mn 2s
Bit rate mode : Constant
Bit rate : 192 Kbps
Channel(s) : 2 channels
Sampling rate : 48.0 KHz
Compression mode : Lossy
Stream size : 26.1 MiB (4%)

Скриншоты

Скачать

Скачать торрент!

Как скачивать? · Что такое торрент? · Рейтинг и ограничения

Сайт не распространяет и не хранит электронные версии произведений, а лишь предоставляет доступ к создаваемому пользователями каталогу ссылок на торрент-файлы, которые содержат только списки хеш-сумм

[Профиль] [ЛС]
Показать сообщения:    
Ответить на тему

Текущее время: Сегодня 18:23

Часовой пояс: GMT + 4



Вы не можете начинать темы
Вы не можете отвечать на сообщения
Вы не можете редактировать свои сообщения
Вы не можете удалять свои сообщения
Вы не можете голосовать в опросах
Вы не можете прикреплять файлы к сообщениям
Вы не можете скачивать файлы