Скуби-Ду! Маска голубого сокола / Scooby-Doo! Mask of the Blue Falcon (Майкл Гогуэн / Michael Goguen) [2012, мультфильм, приключения, семейный, HDRip] Dub

Ответить на тему
 
Автор Сообщение

user ®

Стаж: 12 лет

Сообщений: 15145

Пост Пост: #1 от 19-Мар-2014 22:20

[Цитировать]

Скуби-Ду! Маска голубого сокола / Scooby-Doo! Mask of the Blue Falcon- Страна: США
Жанр: мультфильм, приключения, семейный
Год выпуска: 2012
Продолжительность: 01:16:29
Перевод: Профессиональный (полное дублирование)
Субтитры: нет-Режиссер: Майкл Гогуэн / Michael Goguen-Описание: Когда ужасный злодей мистер Хайд выпускает летучих мышей-монстров, воющих гончих и зловещую слизь на праздник, наступает время для Корпорации Тайны - разгадывать загадки и расставлять ловушки на монстров.
Но наевшаяся пиццы, супер-заряженная команда Шегги и Скуби-Ду должны раскрыть в себе внутренних супергероев, чтобы остановить эту удушающую, омерзительную зеленую слизь!
-Рейтинг:
-Мировая премьера: 15 декабря 2012
Релиз на DVD: 28 февраля 2013, «CP Дистрибуция»--Семпл-Качество: HDRip [Scooby-Doo!Mask.of.the.Blue.Falcon.2012.1080р.BluRay.Rus.Eng.HDCLUB-xmad]
Формат: AVI
Видео: 656x368 (1.78:1), 23.976 fps, XviD build 65 ~1223 kbps avg, 0.21 bit/pixel
Аудио: 48 kHz, MPEG Layer 3, 2 ch, ~128.00 kbps avg
Субтитры: Отсутствуют
-

MI

Format : AVIFormat/Info : Audio Video InterleaveFile size : 744 MiBDuration : 1h 16mnOverall bit rate : 1 361 KbpsWriting application : VirtualDubMod 1.5.10.3 | www.virtualdub-fr.org || (build 2550/release)Writing library : VirtualDubMod build 2550/release
VideoID : 0Format : MPEG-4 VisualFormat profile : Advanced Simple@L5Format settings, BVOP : 2Format settings, QPel : NoFormat settings, GMC : No warppointsFormat settings, Matrix : CustomCodec ID : XVIDCodec ID/Hint : XviDDuration : 1h 16mnBit rate : 1 224 KbpsWidth : 656 pixelsHeight : 368 pixelsDisplay aspect ratio : 16:9Frame rate : 23.976 fpsColor space : YUVChroma subsampling : 4:2:0Bit depth : 8 bitsScan type : ProgressiveCompression mode : LossyBits/(Pixel*Frame) : 0.211Stream size : 669 MiB (90%)Writing library : XviD 65
AudioID : 1Format : MPEG AudioFormat version : Version 1Format profile : Layer 3Codec ID : 55Codec ID/Hint : MP3Duration : 1h 16mnBit rate mode : ConstantBit rate : 128 KbpsChannel count : 2 channelsSampling rate : 48.0 KHzCompression mode : LossyStream size : 70.0 MiB (9%)Alignment : Aligned on interleavesInterleave, duration : 42 ms (1.00 video frame)Interleave, preload duration : 504 msWriting library : LAME3.99rEncoding settings : -m s -V 4 -q 2 -lowpass 17 -b 128
Скачать

Скачать торрент! Скуби-Ду! Маска голубого сокола / Scooby-Doo! Mask of the Blue Falcon (Майкл Гогуэн / Michael Goguen) [2012, мультфильм, приключения, семейный, HDRip] Dub

Как скачивать? · Что такое торрент? · Рейтинг и ограничения

Сайт не распространяет и не хранит электронные версии произведений, а лишь предоставляет доступ к создаваемому пользователями каталогу ссылок на торрент-файлы, которые содержат только списки хеш-сумм

[Профиль] [ЛС]
Показать сообщения:    
Ответить на тему

Текущее время: Сегодня 20:04

Часовой пояс: GMT + 4



Вы не можете начинать темы
Вы не можете отвечать на сообщения
Вы не можете редактировать свои сообщения
Вы не можете удалять свои сообщения
Вы не можете голосовать в опросах
Вы не можете прикреплять файлы к сообщениям
Вы не можете скачивать файлы