Скуби-Ду! Музыка вампира / Scooby-Doo! Music of the Vampire (Дэвид Блок / David Block) [2011, мультфильм, детектив, WEB-DLRip] Dub

Ответить на тему
 
Автор Сообщение

user ®

Стаж: 13 лет

Сообщений: 15041

Пост Пост: #1 от 19-Мар-2014 22:20

[Цитировать]

Скуби-Ду! Музыка вампира / Scooby-Doo! Music of the Vampire- Страна: США
Жанр: мультфильм, детектив
Год выпуска: 2011
Продолжительность: 01:18:14
Перевод: Профессиональный (полное дублирование)
Субтитры: Нет-Режиссер: Дэвид Блок / David Block-Описание: Главный герой Скуби-Ду и его команда Шэгги, Фредди, Дафни и Велма берутся за новое дело. Но дело это не обычное, на сей раз им предстоит встреча с потусторонними существами, такими как вампиры и оборотни. Но эта отважная пятерка детективов не боится ни чего, и отправляется в самое логово злодеев...-Рейтинг:
-Мировая премьера: 16 декабря 2011
Релиз на DVD: 29 марта 2012, «CP Дистрибуция»--Семпл-Качество: WEB-DLRip [Scooby.Doo.Music.of.the.Vampire.2011.1080p.WEB-DL.Rus.Eng.HDCLUB]
Формат: AVI
Видео: 656x368 (1.78:1), 23.976 fps, XviD build 65 ~1192 kbps avg, 0.21 bit/pixel
Аудио: 48 kHz, MPEG Layer 3, 2 ch, ~128.00 kbps avg
Субтитры: Отсутствуют-

MI

Format : AVIFormat/Info : Audio Video InterleaveFile size : 744 MiBDuration : 1h 18mnOverall bit rate : 1 330 KbpsWriting application : VirtualDubMod 1.5.10.3 | www.virtualdub-fr.org || (build 2550/release)Writing library : VirtualDubMod build 2550/release
VideoID : 0Format : MPEG-4 VisualFormat profile : Advanced Simple@L5Format settings, BVOP : 2Format settings, QPel : NoFormat settings, GMC : No warppointsFormat settings, Matrix : CustomCodec ID : XVIDCodec ID/Hint : XviDDuration : 1h 18mnBit rate : 1 193 KbpsWidth : 656 pixelsHeight : 368 pixelsDisplay aspect ratio : 16:9Frame rate : 23.976 fpsColor space : YUVChroma subsampling : 4:2:0Bit depth : 8 bitsScan type : ProgressiveCompression mode : LossyBits/(Pixel*Frame) : 0.206Stream size : 667 MiB (90%)Writing library : XviD 65
AudioID : 1Format : MPEG AudioFormat version : Version 1Format profile : Layer 3Codec ID : 55Codec ID/Hint : MP3Duration : 1h 18mnBit rate mode : ConstantBit rate : 128 KbpsChannel count : 2 channelsSampling rate : 48.0 KHzCompression mode : LossyStream size : 71.6 MiB (10%)Alignment : Aligned on interleavesInterleave, duration : 42 ms (1.00 video frame)Interleave, preload duration : 504 msWriting library : LAME3.99rEncoding settings : -m s -V 4 -q 2 -lowpass 17 -b 128
Скачать

Скачать торрент! Скуби-Ду! Музыка вампира / Scooby-Doo! Music of the Vampire (Дэвид Блок / David Block) [2011, мультфильм, детектив, WEB-DLRip] Dub

Как скачивать? · Что такое торрент? · Рейтинг и ограничения

Сайт не распространяет и не хранит электронные версии произведений, а лишь предоставляет доступ к создаваемому пользователями каталогу ссылок на торрент-файлы, которые содержат только списки хеш-сумм

[Профиль] [ЛС]
Показать сообщения:    
Ответить на тему

Текущее время: Сегодня 23:27

Часовой пояс: GMT + 4



Вы не можете начинать темы
Вы не можете отвечать на сообщения
Вы не можете редактировать свои сообщения
Вы не можете удалять свои сообщения
Вы не можете голосовать в опросах
Вы не можете прикреплять файлы к сообщениям
Вы не можете скачивать файлы