12 ударов / My Kung Fu 12 Kicks / The Whirlwind Kicks / Incredible Master Beggars / Shi er tan tui (Тоу Лоупо / To Lo-Po) [1979, Гонконг, боевые искусства, DVDRip] DVO (ДТВ)

Ответить на тему
 
Автор Сообщение

user ®

Стаж: 11 лет

Сообщений: 15151

Пост Пост: #1 от 19-Мар-2014 22:20

[Цитировать]

12 ударов / My Kung Fu 12 Kicks / The Whirlwind Kicks / Incredible Master Beggars / Shi er tan tui
Страна: Гонконг
Жанр: боевые искусства
Год выпуска: 1979
Продолжительность: 01:25:26
Перевод: Профессиональный (двухголосый закадровый) ДТВ
Cубтитры: нет
Режиссер: Тоу Лоупо / To Lo-Po
В ролях: Брюс Лян, Ку Фэн, Хонь Куокчой, Ли Хайшэн, Эдди Сан, Пань Яокунь, Лау Ятфань, Чау Кон, Сань Куай, Чэнь Линвэй, Ю Тхаувань, Кон Чен
Описание: Этот фильм добавляет чувство юмора к нормальным сражениям кунг-фу, поскольку наш герой борется в самой необычной и забавной манере (что-то, что Джеки Чан также использовал во многих фильмах). В то время как у фильма есть нормальная установка мотива мести, распространённая в подобных фильмах, этот самый странный, поскольку после того, как девушка героя похищена, о ней почти забывает герой в конце, когда он приближается к своей главной схватке с сильнейшим соперником...
Благодарность: За исходник спасибо loxaba.
Сэмпл: http://multi-up.com/960177
Качество видео: DVDRip
Формат видео: AVI
Видео: 720x304 (2.37:1), 25 fps, XviD build 50 ~2251 kbps avg, 0.41 bit/pixel
Аудио: 48 kHz, AC3 Dolby Digital, 2/0 (L,R) ch, ~192 kbps

MediaInfo

Format : AVI
Format/Info : Audio Video Interleave
File size : 1,46 Гбайт
Duration : 1 ч. 25 м.
Overall bit rate : 2454 Кбит/сек
Writing application : VirtualDubMod 1.5.10.3 | www.virtualdub-fr.org || (build 2550/release)
Writing library : VirtualDubMod build 2550/release
Видео
ID : 0
Format : MPEG-4 Visual
Format profile : Advanced Simple@L5
Format settings, BVOP : 2
Format settings, QPel : Нет
Format settings, GMC : Без точки перехода
Format settings, Matrix : Default (MPEG)
Codec ID : XVID
Codec ID/Hint : XviD
Duration : 1 ч. 25 м.
Bit rate : 2252 Кбит/сек
Width : 720 пикселей
Height : 304 пикселя
Display aspect ratio : 2,35:1
Frame rate : 25,000 кадров/сек
Color space : YUV
Chroma subsampling : 4:2:0
Bit depth : 8 бит
Scan type : Прогрессивная
Compression mode : С потерями
Bits/(Pixel*Frame) : 0.412
Stream size : 1,34 Гбайт (92%)
Writing library : XviD 1.2.1 (UTC 2008-12-04)
Аудио
ID : 1
Format : AC-3
Format/Info : Audio Coding 3
Mode extension : CM (complete main)
Format settings, Endianness : Big
Codec ID : 2000
Duration : 1 ч. 25 м.
Bit rate mode : Постоянный
Bit rate : 192 Кбит/сек
Channel(s) : 2 канала
Channel positions : Front: L R
Sampling rate : 48,0 КГц
Bit depth : 16 бит
Compression mode : С потерями
Stream size : 117 Мбайт (8%)
Alignment : Разделение по промежуткам
Interleave, duration : 40 мс. (1,00 видеокадр)
Interleave, preload duration : 500 мс.

Скриншот c названием фильма

Скриншоты

Скачать

Скачать торрент! 12 ударов / My Kung Fu 12 Kicks / The Whirlwind Kicks / Incredible Master Beggars / Shi er tan tui (Тоу Лоупо / To Lo-Po) [1979, Гонконг, боевые искусства, DVDRip] DVO (ДТВ)

Как скачивать? · Что такое торрент? · Рейтинг и ограничения

Сайт не распространяет и не хранит электронные версии произведений, а лишь предоставляет доступ к создаваемому пользователями каталогу ссылок на торрент-файлы, которые содержат только списки хеш-сумм

[Профиль] [ЛС]
Показать сообщения:    
Ответить на тему

Текущее время: Сегодня 20:50

Часовой пояс: GMT + 4



Вы не можете начинать темы
Вы не можете отвечать на сообщения
Вы не можете редактировать свои сообщения
Вы не можете удалять свои сообщения
Вы не можете голосовать в опросах
Вы не можете прикреплять файлы к сообщениям
Вы не можете скачивать файлы