Годзилла и Разрушитель / Годзилла против Разрушителя / Godzilla vs Destoroyah (Такао Окавара / Takao Okawara) [1995, Япония, фантастика, катастрофа, ужасы, кайдзю, DVDRip] VO (Coonnie Lee)

Ответить на тему
 
Автор Сообщение

user ®

Стаж: 11 лет

Сообщений: 15151

Пост Пост: #1 от 19-Мар-2014 22:20

[Цитировать]

Годзилла и Разрушитель / Годзилла против Разрушителя / Godzilla vs Destoroyah
Страна: Япония
Жанр: фантастика, катастрофа, ужасы, кайдзю
Год выпуска: 1995
Продолжительность: 01:40:58
Перевод: Одноголосый закадровый |Coonnie Lee|
Cубтитры: нет
Оригинальная аудиодорожка: нет
Режиссер: Такао Окавара / Takao Okawara
В ролях: Йоко Ишино, Мегуми Одака, Такуро Тацуми
Описание: Расщепление урана в земных недрах вызвало неуправляемую цепную реакцию в теле Годзиллы, превращая его в ядерную бомбу замедленного действия, готовую взорваться в любую минуту. В это время в одной из лабораторий Токио ученые создают препарат, неверное применение которого приводит к созданию супермонстра "Разрушителя", уничтожающего все на своем пути. Единственный шанс человечества на выживание - что в чудовищной схватке титанов не будет победителя.
Сэмпл: http://multi-up.com/960186
Качество видео: DVDRip
Формат видео: AVI
Видео: 1 798 Kbps, 720*404 (16:9), 29.970 fps, MPEG-4 Visual (DivX 5)
Аудио: 256 Kbps, 48.0 KHz, 2 channels, MPEG Audio (MP3)

MediaInfo

Format : AVI
Format/Info : Audio Video Interleave
File size : 1.46 GiB
Duration : 1h 40mn
Overall bit rate : 2 066 Kbps
Writing application : VirtualDubMod 1.5.10.2 (build 2540/release)
Writing library : VirtualDubMod build 2540/release
Video
ID : 0
Format : MPEG-4 Visual
Format profile : Simple@L1
Format settings, BVOP : No
Format settings, QPel : No
Format settings, GMC : No warppoints
Format settings, Matrix : Default (H.263)
Codec ID : DX50
Codec ID/Hint : DivX 5
Duration : 1h 40mn
Bit rate : 1 798 Kbps
Width : 720 pixels
Height : 404 pixels
Display aspect ratio : 16:9
Frame rate : 29.970 fps
Resolution : 8 bits
Colorimetry : 4:2:0
Scan type : Progressive
Bits/(Pixel*Frame) : 0.206
Stream size : 1.27 GiB (87%)
Writing library : DigiArty AV Encoder Core
Audio
ID : 1
Format : MPEG Audio
Format version : Version 1
Format profile : Layer 3
Mode : Joint stereo
Codec ID : 55
Codec ID/Hint : MP3
Duration : 1h 40mn
Bit rate mode : Constant
Bit rate : 256 Kbps
Channel(s) : 2 channels
Sampling rate : 48.0 KHz
Stream size : 185 MiB (12%)
Alignment : Aligned on interleaves
Interleave, duration : 33 ms (1.00 video frame)
Interleave, preload duration : 504 ms

Скриншот c названием фильма

Скриншоты

Скачать

Скачать торрент! Годзилла и Разрушитель / Годзилла против Разрушителя / Godzilla vs Destoroyah (Такао Окавара / Takao Okawara) [1995, Япония, фантастика, катастрофа, ужасы, кайдзю, DVDRip] VO (Coonnie Lee)

Как скачивать? · Что такое торрент? · Рейтинг и ограничения

Сайт не распространяет и не хранит электронные версии произведений, а лишь предоставляет доступ к создаваемому пользователями каталогу ссылок на торрент-файлы, которые содержат только списки хеш-сумм

[Профиль] [ЛС]
Показать сообщения:    
Ответить на тему

Текущее время: Сегодня 18:34

Часовой пояс: GMT + 4



Вы не можете начинать темы
Вы не можете отвечать на сообщения
Вы не можете редактировать свои сообщения
Вы не можете удалять свои сообщения
Вы не можете голосовать в опросах
Вы не можете прикреплять файлы к сообщениям
Вы не можете скачивать файлы