Я, Франкенштейн / I, Frankenstein (Стюарт Битти / Stuart Beattie) [2014, США, Австралия, фэнтези, боевик, BDRip-AVC] Dub (BD RUS)

Ответить на тему
 
Автор Сообщение

user ®

Стаж: 7 лет 7 месяцев

Сообщений: 20008

Пост Пост: #1 от 19-Мар-2014 22:20

[Цитировать]

Я, Франкенштейн / I, Frankenstein- Страна: США, Австралия
Жанр: фэнтези, боевик
Год выпуска: 2014
Продолжительность: 1h 32mn 58s
Перевод: Профессиональный (дублированный) BD RUS
Cубтитры: нет
Оригинальная аудиодорожка: нет
Режиссер: Стюарт Битти / Stuart Beattie
В ролях:
Аарон Экхарт (Adam) / Aaron Eckhart
Ивонн Страховски (Terra), Миранда Отто (Leonore), Билл Найи (Naberius), Джай Кортни (Gideon), Сократис Отто (Zuriel), Аден Янг (Victor Frankenstein), Кэйтлин Стэйси (Keziah), Махеш Джаду (Ophir), Стив Музакис (Helek), Николас Белл (Carl Avery)-ОписаниеОн — монстр. Он — двухсотлетний плод безумной фантазии своего создателя. Он — легенда. Мир, в котором он живет, населен древними горгульями и бессмертными демонами, которые сражаются за обладание человечеством. Величественные соборы скрывают огромные арсеналы, за дверьми научных лабораторий проводятся эксперименты по воскрешению мертвых. Война двух кланов могущественных существ достигает своего пика. И только он, Адам, монстр Франкенштейна, в силах ее остановить.-Сэмпл

IMDb: 5.30 (14 958)
Качество видео: BDRip-AVC Исх. Blu-ray 1080p AVC LPCM 5.1
Формат видео: MKV
Видео: AVC 2 965 Kbps 1104 x 462 (2.390) 24.000 fps
Аудио: AC-3 384 Kbps 6 channels, 48.0 KHz

MediaInfo | Log

Log

raw [info]: 1104x462p 1:1 @ 10000000/416667 fps (cfr)
x264 [info]: using SAR=1/1
x264 [info]: using cpu capabilities: MMX2 SSE2Fast SSSE3 SSE4.2 AVX
x264 [info]: profile High, level 4.1
x264 [info]: frame I:1440 Avg QP:13.34 size: 94732
x264 [info]: frame P:33278 Avg QP:16.07 size: 29290
x264 [info]: frame B:99156 Avg QP:19.61 size: 9617
x264 [info]: consecutive B-frames: 3.6% 5.5% 14.3% 23.1% 18.7% 20.3% 8.0% 3.5% 2.9%
x264 [info]: mb I I16..4: 7.1% 68.4% 24.5%
x264 [info]: mb P I16..4: 1.7% 15.5% 2.3% P16..4: 27.0% 30.2% 11.2% 2.4% 0.4% skip: 9.4%
x264 [info]: mb B I16..4: 0.3% 2.8% 0.3% B16..8: 32.6% 18.3% 2.9% direct: 7.4% skip:35.3% L0:44.0% L1:42.8% BI:13.2%
x264 [info]: 8x8 transform intra:78.4% inter:61.3%
x264 [info]: direct mvs spatial:95.4% temporal:4.6%
x264 [info]: coded y,uvDC,uvAC intra: 82.0% 82.6% 66.0% inter: 25.7% 28.7% 11.1%
x264 [info]: i16 v,h,dc,p: 21% 18% 7% 54%
x264 [info]: i8 v,h,dc,ddl,ddr,vr,hd,vl,hu: 10% 8% 9% 9% 13% 13% 12% 12% 15%
x264 [info]: i4 v,h,dc,ddl,ddr,vr,hd,vl,hu: 12% 10% 7% 8% 13% 13% 12% 11% 13%
x264 [info]: i8c dc,h,v,p: 43% 24% 17% 16%
x264 [info]: Weighted P-Frames: Y:5.7% UV:3.3%
x264 [info]: ref P L0: 46.5% 9.5% 16.5% 6.9% 5.1% 4.1% 3.4% 2.0% 1.9% 1.6% 1.2% 1.1% 0.3% 0.0%
x264 [info]: ref B L0: 72.2% 11.4% 5.7% 2.7% 2.0% 1.8% 1.6% 0.9% 1.0% 0.6% 0.2%
x264 [info]: ref B L1: 91.2% 8.8%
x264 [info]: kb/s:2961.23
x264 [total]: encoded 133874 frames, 11.75 fps, 2961.23 kb/s
General
Unique ID : 192166083923657131042916030860709714520 (0x9091D76EAB2F3AC18A440BD2B32DDA58)
Complete name : R:\Video 2\I, Frankenstein\I, Frankenstein 2.18\I, Frankenstein(2.18).mkv
Format : Matroska
Format version : Version 4 / Version 2
File size : 2.17 GiB
Duration : 1h 32mn
Overall bit rate : 3 347 Kbps
Encoded date : UTC 2014-03-19 08:36:54
Writing application : mkvmerge v6.7.0 ('Back to the Ground') 32bit built on Jan 8 2014 15:03:17
Writing library : libebml v1.3.0 + libmatroska v1.4.1
Video
ID : 1
Format : AVC
Format/Info : Advanced Video Codec
Format profile : High@L4.1
Format settings, CABAC : Yes
Format settings, ReFrames : 12 frames
Codec ID : V_MPEG4/ISO/AVC
Duration : 1h 32mn
Bit rate : 2 965 Kbps
Width : 1 104 pixels
Height : 462 pixels
Display aspect ratio : 2.40:1
Frame rate mode : Constant
Frame rate : 24.000 fps
Color space : YUV
Chroma subsampling : 4:2:0
Bit depth : 8 bits
Scan type : Progressive
Bits/(Pixel*Frame) : 0.242
Stream size : 1.88 GiB (87%)
Writing library : x264 core 140 r2377 1ca7bb9
Encoding settings : cabac=1 / ref=12 / deblock=1:-2:-1 / analyse=0x3:0x133 / me=umh / subme=11 / psy=1 / psy_rd=1.00:0.05 / mixed_ref=1 / me_range=32 / chroma_me=1 / trellis=2 / 8x8dct=1 / cqm=0 / deadzone=21,11 / fast_pskip=0 / chroma_qp_offset=-3 / threads=12 / lookahead_threads=2 / sliced_threads=0 / nr=0 / decimate=1 / interlaced=0 / bluray_compat=0 / constrained_intra=0 / bframes=8 / b_pyramid=2 / b_adapt=2 / b_bias=0 / direct=3 / weightb=1 / open_gop=0 / weightp=2 / keyint=250 / keyint_min=23 / scenecut=40 / intra_refresh=0 / rc_lookahead=60 / rc=2pass / mbtree=1 / bitrate=2965 / ratetol=1.0 / qcomp=0.60 / qpmin=0 / qpmax=69 / qpstep=4 / cplxblur=20.0 / qblur=0.5 / ip_ratio=1.40 / aq=1:1.00
Language : English
Default : Yes
Forced : No
Audio
ID : 2
Format : AC-3
Format/Info : Audio Coding 3
Mode extension : CM (complete main)
Format settings, Endianness : Big
Codec ID : A_AC3
Duration : 1h 32mn
Bit rate mode : Constant
Bit rate : 384 Kbps
Channel(s) : 6 channels
Channel positions : Front: L C R, Side: L R, LFE
Sampling rate : 48.0 KHz
Bit depth : 16 bits
Compression mode : Lossy
Stream size : 255 MiB (11%)
Title : Dub
Language : Russian
Default : Yes
Forced : No
Menu
00:00:00.000 : en:00:00:00.000
00:12:23.333 : en:00:12:23.333
00:22:06.458 : en:00:22:06.458
00:33:19.958 : en:00:33:19.958
00:44:49.083 : en:00:44:49.083
00:56:42.125 : en:00:56:42.125
01:07:08.458 : en:01:07:08.458
01:21:09.792 : en:01:21:09.792

Скриншоты

Скачать

Скачать торрент!

Как скачивать? · Что такое торрент? · Рейтинг и ограничения

Сайт не распространяет и не хранит электронные версии произведений, а лишь предоставляет доступ к создаваемому пользователями каталогу ссылок на торрент-файлы, которые содержат только списки хеш-сумм

[Профиль] [ЛС]
Показать сообщения:    
Ответить на тему

Текущее время: Сегодня 20:19

Часовой пояс: GMT + 4



Вы не можете начинать темы
Вы не можете отвечать на сообщения
Вы не можете редактировать свои сообщения
Вы не можете удалять свои сообщения
Вы не можете голосовать в опросах
Вы не можете прикреплять файлы к сообщениям
Вы не можете скачивать файлы