Пушки и розы / Huang Jin Da Jie An / Guns and Roses / Gold Mystery Case / Guns N\'Roses / Robbing the Gold / A Big Gold Robbery (Нин Хао / Ning Hao) [2012, Китай, драма, BDRip] Sub Rus

Ответить на тему
 
Автор Сообщение

user ®

Стаж: 11 лет

Сообщений: 15151

Пост Пост: #1 от 19-Мар-2014 10:55

[Цитировать]

Пушки и розы / Huang Jin Da Jie An / Guns and Roses / Gold Mystery Case / Guns N'Roses / Robbing the Gold / A Big Gold Robbery
Страна: Китай
Жанр: драма
Год выпуска: 2012
Продолжительность: 01:50:46-Перевод: Субтитры (Рэйдзи)
Cубтитры: русские (вшитые)
Оригинальная аудиодорожка: Китайский-Режиссер: Нин Хао / Ning Hao
В ролях: Лэй Тья Инь, Хуан Бо, Чэн Юань Юань, Ямадзаки Кэиити, Гуо Тао, Лю Хуа, Фань Вэй-Описание: Фильм рассказывает о революционерах, которые хотят украсть золото, чтобы сорвать сделку оружия японцев с маньчжурами.- -Релиз группы
-Качество видео: BDRip (BD25)
Формат видео: AVI
Видео: XviD, 720x304 (2.37:1), 24.000 fps, 1688 kbps avg, 0.32 bit/pixel
Аудио: Китайский MPEG layer 3, 192 kbps-

MediaInfo

Format : AVI
Format/Info : Audio Video Interleave
File size : 1.46 GiB
Duration : 1h 50mn
Overall bit rate : 1 890 Kbps
Writing application : VirtualDubMod 1.5.10.3 | www.virtualdub-fr.org || (build 2550/release)
Writing library : VirtualDubMod build 2550/release
Video
ID : 0
Format : MPEG-4 Visual
Format profile : Advanced Simple@L5
Format settings, BVOP : 1
Format settings, QPel : No
Format settings, GMC : No warppoints
Format settings, Matrix : Custom
Codec ID : XVID
Codec ID/Hint : XviD
Duration : 1h 50mn
Bit rate : 1 688 Kbps
Width : 720 pixels
Height : 304 pixels
Display aspect ratio : 2.35:1
Frame rate : 24.000 fps
Color space : YUV
Chroma subsampling : 4:2:0
Bit depth : 8 bits
Scan type : Progressive
Compression mode : Lossy
Bits/(Pixel*Frame) : 0.321
Stream size : 1.31 GiB (89%)
Writing library : XviD 73
Audio
ID : 1
Format : MPEG Audio
Format version : Version 1
Format profile : Layer 3
Codec ID : 55
Codec ID/Hint : MP3
Duration : 1h 50mn
Bit rate mode : Constant
Bit rate : 192 Kbps
Channel(s) : 2 channels
Sampling rate : 48.0 KHz
Compression mode : Lossy
Stream size : 152 MiB (10%)
Alignment : Aligned on interleaves
Interleave, duration : 42 ms (1.00 video frame)
Interleave, preload duration : 504 ms

Скриншот с названием

Скриншоты

Скачать

Скачать торрент! Пушки и розы / Huang Jin Da Jie An / Guns and Roses / Gold Mystery Case / Guns N\'Roses / Robbing the Gold / A Big Gold Robbery (Нин Хао / Ning Hao) [2012, Китай, драма, BDRip] Sub Rus

Как скачивать? · Что такое торрент? · Рейтинг и ограничения

Сайт не распространяет и не хранит электронные версии произведений, а лишь предоставляет доступ к создаваемому пользователями каталогу ссылок на торрент-файлы, которые содержат только списки хеш-сумм

[Профиль] [ЛС]
Показать сообщения:    
Ответить на тему

Текущее время: Сегодня 23:36

Часовой пояс: GMT + 4



Вы не можете начинать темы
Вы не можете отвечать на сообщения
Вы не можете редактировать свои сообщения
Вы не можете удалять свои сообщения
Вы не можете голосовать в опросах
Вы не можете прикреплять файлы к сообщениям
Вы не можете скачивать файлы