Песня / Geet (Рамананд Сагар / Ramanand Sagar) [1970, Индия, Мелодрама, криминал, музыкальный, DVDRip] VO (Nastia) + Original + Sub Rus

Ответить на тему
 
Автор Сообщение

user ®

Стаж: 12 лет

Сообщений: 15092

Пост Пост: #1 от 19-Мар-2014 07:45

[Цитировать]

Песня / Geet-- Страна: Индия
Жанр: Мелодрама, криминал, музыкальный
Год выпуска: 1970
Продолжительность: 02:52:08
Перевод: Одноголосый закадровый (Nastia)
Перевод субтитров: larisa_k
Cубтитры: Русские (на песни)
Оригинальная аудиодорожка: хинди--Режиссер: Рамананд Сагар / Ramanand Sagar--В ролях: Раджендра Кумар, Мала Синха, Насир Хусейн, Кумкум, Суджит Кумар, Манмохан Кришна, Дейзи Ирани, Бхагван, Тун Тун, Брам Бхардварж, Кешто Мукхерджи, Паро, Чаман Пури--Описание: Это история любви популярной театральной актрисы Камлы и музыкально одаренного пастуха Сарджу. Они встретились в кашмирских горах и полюбили друг друга. Сарджу боясь проклятия своего покойного учителя не хочет ехать с Камлой в город и продавать свой талант за деньги. Но волею судьбы он вместе со своей сестрой Джанки оказывается в Дели и с помощью Камлы становится популярным театральным актером и певцом. Простодушный Сарджу даже не подозревает что перешел дорогу Кунвару, хозяину театра где они с Камлой работают. Кунвар влюблен в Камлу и во имя своей эгоистичной страсти готов погубить и своего соперника, и отца Камлы и даже саму Камлу.--Доп. информация: Фильм имел большой успех на Шри-Ланке и шел в кинотеатрах Коломбо рекордные 604 дня. На телугу снят ремейк этого фильма "Aradhana" с Н.Т.Рама Рао и Ванисри в главных ролях. (larisa_k)--Большое спасибо:
reza74, за DVD9 (без перевода)
larisa_k, за перевод субтитров, за описание фильма и за предоставленную озвучку
Nastia, за озвучку фильма
Рип и сведение звука: pca1962--Релиз-группа:

Сэмпл: http://multi-up.com/960057
Качество видео: DVDRip
Формат видео: AVI
Видео: XviD, 640x480, 23.976 fps, 1204 kbps
Аудио: AC3, 48 kHz, 2.0 (stereo), 192 kbps (русский)
Аудио 2: AC3, 48 kHz, 2.0 (stereo), 224 kbps (хинди)
Формат субтитров: softsub (SRT)-
-

MediaInfo

=== Общие ===
Полное имя : Pesnya.1970.DVDRip.XviD.pca1962.avi
Формат : AVI
Описание формата : Audio Video Interleave
Профиль формата : OpenDML
Размер файла : 2.05 Гб
Длительность : 2ч 52мин
Общий битрейт : 1 702 кбит/сек
Програмное обеспечение : VirtualDubModRus 1.5.10.2 (build 2542/release)
Кодирующая библиотека : VirtualDubMod build 2542/release
=== Видео ===
ID (Идентификатор) : 0
Формат : MPEG-4 Visual
Профиль формата : Advanced Simple@L5
Параметр 'BVOP' : 1
Параметр 'QPel' : Нет
Параметр 'GMC' : No warppoints
Параметр 'Matrix' : Default (MPEG)
Идентификатор кодека : DX50
Подпись кодека : DivX 5
Длительность : 2ч 52мин
Битрейт : 1204 кбит/сек
Ширина кадра : 640 пикселей
Высота кадра : 480 пикселей
Соотношение сторон : 4:3
Частота кадров : 23.976 кадров/сек
Цветовое пространство : YUV
Субдискретизация насыщенности : 4:2:0
Глубина (разрядность) : 8 bits
Тип развертки : Прогрессивная
Режим сжатия : С потерями
Бит/(пиксель*кадр) : 0.163
Размер потока : 1.45 Гб (71%)
Кодирующая библиотека : XviD 1.2.1 (UTC 2008-12-04)
=== Аудио 1 ===
ID (Идентификатор) : 1
Формат : AC-3
Описание формата : Audio Coding 3
Mode extension : CM (complete main)
Идентификатор кодека : 2000
Длительность : 2ч 52мин
Тип битрейта : Постоянный
Битрейт : 192 кбит/сек
Канал(ы) : 2 каналов
Расположение каналов : Front: L R
Частота дискретизации : 48.0 кГц
Глубина (разрядность) : 16 bits
Режим сжатия : С потерями
Размер потока : 236 Мб (11%)
Расположение потока : Split accross interleaves
Период чередования : 42 мс (1.00 video frame)
Предварительная загрузка : 500 мс
=== Аудио 2 ===
ID (Идентификатор) : 2
Формат : AC-3
Описание формата : Audio Coding 3
Mode extension : CM (complete main)
Идентификатор кодека : 2000
Длительность : 2ч 52мин
Тип битрейта : Постоянный
Битрейт : 224 кбит/сек
Канал(ы) : 2 каналов
Расположение каналов : Front: L R
Частота дискретизации : 48.0 кГц
Глубина (разрядность) : 16 bits
Режим сжатия : С потерями
Размер потока : 276 Мб (13%)
Расположение потока : Split accross interleaves
Период чередования : 42 мс (1.00 video frame)
Предварительная загрузка : 500 мс

-
-

Скриншот c названием фильма

Скачать

Скачать торрент! Песня / Geet (Рамананд Сагар / Ramanand Sagar) [1970, Индия, Мелодрама, криминал, музыкальный, DVDRip] VO (Nastia) + Original + Sub Rus

Как скачивать? · Что такое торрент? · Рейтинг и ограничения

Сайт не распространяет и не хранит электронные версии произведений, а лишь предоставляет доступ к создаваемому пользователями каталогу ссылок на торрент-файлы, которые содержат только списки хеш-сумм

[Профиль] [ЛС]
Показать сообщения:    
Ответить на тему

Текущее время: Сегодня 06:41

Часовой пояс: GMT + 4



Вы не можете начинать темы
Вы не можете отвечать на сообщения
Вы не можете редактировать свои сообщения
Вы не можете удалять свои сообщения
Вы не можете голосовать в опросах
Вы не можете прикреплять файлы к сообщениям
Вы не можете скачивать файлы