Вероника Марс / Veronica Mars (Роб Томас / Rob Thomas) [2014, США, Драма, комедия, криминал, WEB-DLRip] VO |qwerty|

Ответить на тему
 
Автор Сообщение

user ®

Стаж: 7 лет 7 месяцев

Сообщений: 20008

Пост Пост: #1 от 18-Мар-2014 23:30

[Цитировать]

Вероника Марс / Veronica Mars«She thought she was out» -Страна: США
Жанр: детектив, криминал, драма, комедия
Год выпуска: 2014
Продолжительность: 01:47:37
Перевод: Любительский (одноголосый закадровый) |qwerty|
Cубтитры: нет-Режиссер: Роб Томас / Rob Thomas-В ролях: Кристен Белл, Джейми Ли Кёртис, Джастин Лонг, Дэкс Шепард, Джерри О’Коннелл, Джейсон Доринг, Кристен Риттер, Райан Хансен, Фрэнсис Капра, Перси Даггс III, Крис Лоуэлл, Тина Мажорино, Энрико Колантони, Джеймс Франко-Описание: Когда-то помогая отцу распутывать преступления в родном городе Нептун, Вероника Марс понимала, что это не будет длиться вечно. Уехав в Нью-Йорк и получив должность адвоката в хорошей фирме, она была уверена, что вырвалась из замкнутого круга. Она ошибалась.
Ее бывший парень Логан Экхолз обвиняется в убийстве своей подруги — молодой старлетки. Приняв решение помочь ему, Вероника возвращается в Нептун и начинает собственное расследование. Внезапно она оказывается в самой гуще событий, окруженная друзьями и врагами. И самый большой вопрос — кому можно верить, а кому — нет…- -Релиз от: -Автор рипа: Yarmak23-Качество видео: WEB-DLRip |исходник: WEB-DL 720p|
Формат видео: AVI
Видео: 688x288 (2.40:1), 23.976 fps, XviD 65 ~831 kbps avg, 0.175 bit/pixel
Аудио: 48 kHz, MPEG Layer 3, 2 ch, 128.00 kbps Constant |Одноголосый закадровый, qwerty|
Скачать: Сэмпл-

MI

Общее
Полное имя : Veronica.Mars.2014.L1.WEB-DLRip.745MB_New-team_by_Yarmak23.avi
Формат : AVI
Формат/Информация : Audio Video Interleave
Размер файла : 745 Мбайт
Продолжительность : 1 ч. 47 м.
Общий поток : 968 Кбит/сек
Программа кодирования : VirtualDubMod 1.5.10.3 | www.virtualdub-fr.org || (build 2550/release)
Библиотека кодирования : VirtualDubMod build 2550/release
Видео
Идентификатор : 0
Формат : MPEG-4 Visual
Профиль формата : Advanced Simple@L5
Параметр BVOP формата : 1
Параметр QPel формата : Нет
Параметр GMC формата : Без точки перехода
Параметр матрицы формата : Выборочная
Идентификатор кодека : XVID
Идентификатор кодека/Подсказка : XviD
Продолжительность : 1 ч. 47 м.
Битрейт : 831 Кбит/сек
Ширина : 688 пикселей
Высота : 288 пикселей
Соотношение сторон : 2,40:1
Частота кадров : 23,976 кадра/сек
Цветовое пространство : YUV
Субдискретизация насыщенности : 4:2:0
Битовая глубина : 8 бит
Тип развёртки : Прогрессивная
Метод сжатия : С потерями
Бит/(Пиксели*Кадры) : 0.175
Размер потока : 640 Мбайт (86%)
Библиотека кодирования : XviD 65
Аудио
Идентификатор : 1
Формат : MPEG Audio
Версия формата : Version 1
Профиль формата : Layer 3
Идентификатор кодека : 55
Идентификатор кодека/Подсказка : MP3
Продолжительность : 1 ч. 47 м.
Вид битрейта : Постоянный
Битрейт : 128 Кбит/сек
Каналы : 2 канала
Частота : 48,0 КГц
Метод сжатия : С потерями
Размер потока : 98,5 Мбайт (13%)
Выравнивание : Соединение по промежуткам
Продолжительность промежутка : 42 мс. (1,00 видеокадр)
Время предзагрузки промежутка : 504 мс.
Библиотека кодирования : LAME3.99r
Настройки программы : -m s -V 4 -q 2 -lowpass 17 -b 128

Скриншоты


- детям до 13 лет просмотр не желателен
Скачать

Скачать торрент!

Как скачивать? · Что такое торрент? · Рейтинг и ограничения

Сайт не распространяет и не хранит электронные версии произведений, а лишь предоставляет доступ к создаваемому пользователями каталогу ссылок на торрент-файлы, которые содержат только списки хеш-сумм

[Профиль] [ЛС]
Показать сообщения:    
Ответить на тему

Текущее время: Сегодня 04:21

Часовой пояс: GMT + 4



Вы не можете начинать темы
Вы не можете отвечать на сообщения
Вы не можете редактировать свои сообщения
Вы не можете удалять свои сообщения
Вы не можете голосовать в опросах
Вы не можете прикреплять файлы к сообщениям
Вы не можете скачивать файлы