Рождественская роза / Sheng Dan Mei Gui / Christmas Rose (Чарли Ён / Charlie Yeung Choi-Nei) [2013, Гонконг, драма, детектив, BDRip] Sub Rus

Ответить на тему
 
Автор Сообщение

user ®

Стаж: 11 лет

Сообщений: 15151

Пост Пост: #1 от 18-Мар-2014 14:00

[Цитировать]

Рождественская роза / Sheng Dan Mei Gui / Christmas Rose
Страна: Гонконг
Жанр: драма, детектив
Год выпуска: 2013
Продолжительность: 01:29:47-Перевод: Субтитры (Ками)
Cубтитры: русские (вшитые)
Оригинальная аудиодорожка: Кантонский-Режиссер: Чарли Ён / Charlie Yeung Choi-Nei
В ролях: Аарон Квок, Сяо Ю, Квай Лунь Мэй, Чан Чэнь-Описание: Известный доктор Уинстон Жоу (Чанг Чен) обвиняется в том, что во время профилактического осмотра домогался до своей пациентки – юной Цзин (Квай Лун-Мей). Ситуация усугубляется тем, что Цзин парализована ниже пояса и оказать сопротивление, по ее словам, не могла. Свидетелей нет, слово девушки против слова врача – дело попадает в суд, где лицом к лицу сталкиваются два опытных юриста (Аарон Квок и Сяо Ю). Акира- -Релиз группы
-Качество видео: BDRip (BD25)
Формат видео: AVI
Видео: XviD, 720x304 (2.37:1), 24.000 fps, 2128 kbps avg, 0.41 bit/pixel
Аудио: Кантонский MPEG layer 3, 192 kbps-

MediaInfo

Format : AVI
Format/Info : Audio Video Interleave
File size : 1.46 GiB
Duration : 1h 29mn
Overall bit rate : 2 330 Kbps
Writing application : VirtualDubMod 1.5.10.3 | www.virtualdub-fr.org || (build 2550/release)
Writing library : VirtualDubMod build 2550/release
Video
ID : 0
Format : MPEG-4 Visual
Format profile : Advanced Simple@L5
Format settings, BVOP : 1
Format settings, QPel : No
Format settings, GMC : No warppoints
Format settings, Matrix : Custom
Codec ID : XVID
Codec ID/Hint : XviD
Duration : 1h 29mn
Bit rate : 2 128 Kbps
Width : 720 pixels
Height : 304 pixels
Display aspect ratio : 2.35:1
Frame rate : 24.000 fps
Color space : YUV
Chroma subsampling : 4:2:0
Bit depth : 8 bits
Scan type : Progressive
Compression mode : Lossy
Bits/(Pixel*Frame) : 0.405
Stream size : 1.33 GiB (91%)
Writing library : XviD 73
Audio
ID : 1
Format : MPEG Audio
Format version : Version 1
Format profile : Layer 3
Codec ID : 55
Codec ID/Hint : MP3
Duration : 1h 29mn
Bit rate mode : Constant
Bit rate : 192 Kbps
Channel(s) : 2 channels
Sampling rate : 48.0 KHz
Compression mode : Lossy
Stream size : 123 MiB (8%)
Alignment : Aligned on interleaves
Interleave, duration : 42 ms (1.00 video frame)
Interleave, preload duration : 504 ms

Скриншот с названием

Скриншоты

[Профиль] [ЛС]
Показать сообщения:    
Ответить на тему

Текущее время: Сегодня 12:58

Часовой пояс: GMT + 4



Вы не можете начинать темы
Вы не можете отвечать на сообщения
Вы не можете редактировать свои сообщения
Вы не можете удалять свои сообщения
Вы не можете голосовать в опросах
Вы не можете прикреплять файлы к сообщениям
Вы не можете скачивать файлы