Империя убийц / Empire of Assassins (Ду Сяо / Du Xiao) [2011, Китай, боевые искусства, DVDRip] VO (Виктор Береговых)

Ответить на тему
 
Автор Сообщение

user ®

Стаж: 11 лет

Сообщений: 15151

Пост Пост: #1 от 17-Мар-2014 23:30

[Цитировать]

Империя убийц / Empire of Assassins
Страна: Китай
Жанр: боевые искусства
Год выпуска: 2011
Продолжительность: 01:32:23
Перевод: Одноголосый закадровый (Виктор Береговых)
Cубтитры: нет
Режиссер: Ду Сяо / Du Xiao
В ролях: Лён Ка Ян, Юэнь Бяо, Це Мю, Цунь Хуэй Ся, Ли Юань, Цзи Чунь Хуа
Описание: Император Ван Ши уничтожает школы боевых искусств и неугодные ему семьи.Делает он это тайно и никто из жителей страны не догадывается о том, что в убийствах виновен их правитель.Все идет гладко, пока не появляется загадочный убийца.Пятнадцать лет назад император приказал убить семью Чжан, но один из сыновей выжил и теперь он намерен отомстить...(В.Береговых)
Сэмпл: http://www.sendspace.com/file/lg5v9j
Качество видео: DVDRip
Формат видео: AVI
Видео: XviD, 720x416 (16:9), 23.976 fps, 1920 kbps avg, 0.267 bit/pixel
Аудио: AC3, 48.0 KHz, 192 Kbps, 2 channels
Релиз форума Tavernaclub

MediaInfo

General
Complete name : C:\Империя убийц\Империя убийц.avi
Format : AVI
Format/Info : Audio Video Interleave
File size : 1.37 GiB
Duration : 1h 32mn
Overall bit rate : 2 119 Kbps
Writing application : VirtualDubMod 1.5.4.1 (build 2178/release)
Writing library : VirtualDubMod build 2178/release
Video
ID : 0
Format : MPEG-4 Visual
Format profile : Simple@L3
Format settings, BVOP : Yes
Format settings, QPel : No
Format settings, GMC : No warppoints
Format settings, Matrix : Custom
Codec ID : XVID
Codec ID/Hint : XviD
Duration : 1h 32mn
Bit rate : 1 920 Kbps
Width : 720 pixels
Height : 416 pixels
Display aspect ratio : 16:9
Frame rate : 23.976 fps
Resolution : 24 bits
Colorimetry : 4:2:0
Scan type : Progressive
Bits/(Pixel*Frame) : 0.267
Stream size : 1.24 GiB (91%)
Writing library : XviD 1.0.1 (UTC 2004-06-05)
Audio
ID : 1
Format : AC-3
Format/Info : Audio Coding 3
Codec ID : 2000
Duration : 1h 32mn
Bit rate mode : Constant
Bit rate : 192 Kbps
Channel(s) : 2 channels
Channel positions : L R
Sampling rate : 48.0 KHz
Stream size : 127 MiB (9%)
Alignment : Split accross interleaves
Interleave, duration : 96 ms (2.30 video frames)
Interleave, preload duration : 96 ms
Language : Russian

Скриншот c названием фильма

Скриншоты

Скачать

Скачать торрент! Империя убийц / Empire of Assassins (Ду Сяо / Du Xiao) [2011, Китай, боевые искусства, DVDRip] VO (Виктор Береговых)

Как скачивать? · Что такое торрент? · Рейтинг и ограничения

Сайт не распространяет и не хранит электронные версии произведений, а лишь предоставляет доступ к создаваемому пользователями каталогу ссылок на торрент-файлы, которые содержат только списки хеш-сумм

[Профиль] [ЛС]
Показать сообщения:    
Ответить на тему

Текущее время: Сегодня 09:34

Часовой пояс: GMT + 4



Вы не можете начинать темы
Вы не можете отвечать на сообщения
Вы не можете редактировать свои сообщения
Вы не можете удалять свои сообщения
Вы не можете голосовать в опросах
Вы не можете прикреплять файлы к сообщениям
Вы не можете скачивать файлы