Need for Speed: Жажда скорости / Need for Speed (Скотт Во / Scott Waugh) [2014, США, Боевик, Триллер, Драма, Криминал, CamRip] Dub

Ответить на тему
 
Автор Сообщение

user ®

Стаж: 7 лет 7 месяцев

Сообщений: 20008

Пост Пост: #1 от 17-Мар-2014 08:55

[Цитировать]

Need for Speed: Жажда скорости / Need for Speed
Страна: США
Жанр: Боевик, Триллер, Драма, Криминал
Год выпуска: 2014
Продолжительность: 02:01:50
Перевод: Профессиональный (дублированный)
Cубтитры: Присутствуют вшитые испанские субтитры
Режиссер: Скотт Во / Scott Waugh
В ролях: Аарон Пол, Доминик Купер, Имоджен Путс, Дакота Джонсон, Майкл Китон, Рамон Родригес, Ник Чинланд, Скотт Мескади, Рами Малек, Харрисон Джилбертсон
Описание: История Тоби Маршалла, гениального автомеханика, чьей единственной отдушиной является участие в подпольных гонках. Чтобы сохранить семейную мастерскую, Тоби вынужден взять в партнеры богатого и заносчивого бывшего гонщика NASCAR Дино Брюстера. Когда дела Тоби наконец-то начинают идти в гору, Дино подставляет партнера, и Тоби обвиняют в преступлении, которого он не совершал. Спустя два года Тоби выходит из тюрьмы с мыслью о мести. Чтобы достичь своей цели, ему придется совершить невозможное и доказать, что даже в мире броских суперкаров самый невзрачный гонщик может финишировать первым.
Доп. информация:
Примечание: Отсутствует 3 минуты перевода
Сэмпл: http://multi-up.com/959362
Качество видео: CamRip
Формат видео: AVI
Видео: XVID, 720x304 (2,35:1), 25,000 кадров/сек, 1472 Кбит/сек
Аудио: MP3, 44,1 КГц, 128 Кбит/сек (2 канала)

Знаете ли вы что...

•● Фильм снят по мотивам серии компьютерных игр «Need for Speed» (1994 — н. в.).
•● Чтобы снять крупный план Скотта Мескади за штурвалом летящего вертолета, режиссер Скотт Во, который сам некоторое время отработал каскадером, решил подвергнуть свою жизнь немалому риску. Он снимал сцену сам, находясь в люльке снаружи вертолета, не позволив рисковать оператору.
Тейлор Китч, Лиам Хемсворт, Брентон Туэйтес и Люк Брейси рассматривались на главную роль, но в итоге был утвержден Аарон Пол.
•● Автомобили Аарона Пола и Доминика Купера на самом деле управлялись известными гонщиками Тэннером Фустом и Ризом Милленом. Соответственно, за рулем других супер-тачек во время финальной гонки сидели другие профессиональные гонщики, в их числе — Рич Разерфорд, Тони Бракохиапа (Tony Brakohiapa), Брент Флетчер (Brent Fletcher) и Пол Далленбах.
•● Фильм снимался в самых разных уголках Северной Америки. Среди съемочных локаций: винодельческий округ Мендосино и Сан-Франциско, штат Калифорния; города Мейкон и Стоун Маунтэн, штат Джорджия; мост 13th St. Bridge над рекой Чаттахуучи, связывающий Колумбус, штат Джорджия и Финикс, штат Алабама; город Детройт; место, именуемое Fossil Point (Окаменелый пик) над рекой Колорадо; солончаки в округе Бонневилл, штат Айдахо; и Моав, штат Юта.

MediaInfo

Формат : AVI
Формат/Информация : Audio Video Interleave
Размер файла : 1,37 Гбайт
Продолжительность : 2 ч. 1 м.
Режим общего битрейта : Переменный
Общий поток : 1612 Кбит/сек
Программа кодирования : VirtualDubMod 1.5.10.3 | www.virtualdub-fr.org || (build 2550/release)
Библиотека кодирования : VirtualDubMod build 2550/release
Видео
Идентификатор : 0
Формат : MPEG-4 Visual
Профиль формата : Advanced Simple@L5
Параметр BVOP формата : 2
Параметр QPel формата : Нет
Параметр GMC формата : Без точки перехода
Параметр матрицы формата : Default (MPEG)
Идентификатор кодека : XVID
Идентификатор кодека/Подсказка : XviD
Продолжительность : 2 ч. 1 м.
Битрейт : 1472 Кбит/сек
Ширина : 720 пикселей
Высота : 304 пикселя
Соотношение сторон : 2,35:1
Частота кадров : 25,000 кадров/сек
Цветовое пространство : YUV
Субдискретизация насыщенности : 4:2:0
Битовая глубина : 8 бит
Тип развёртки : Прогрессивная
Метод сжатия : С потерями
Бит/(Пиксели*Кадры) : 0.269
Размер потока : 1,25 Гбайт (91%)
Библиотека кодирования : XviD 73
Аудио
Идентификатор : 1
Формат : MPEG Audio
Версия формата : Version 1
Профиль формата : Layer 3
Идентификатор кодека : 55
Идентификатор кодека/Подсказка : MP3
Продолжительность : 2 ч. 1 м.
Вид битрейта : Переменный
Битрейт : 128 Кбит/сек
Каналы : 2 канала
Частота : 44,1 КГц
Метод сжатия : С потерями
Размер потока : 112 Мбайт (8%)
Выравнивание : Соединение по промежуткам
Продолжительность промежутка : 26 мс. (0,65 видеокадр)
Время предзагрузки промежутка : 502 мс.

Скриншоты

Скачать

Скачать торрент!

Как скачивать? · Что такое торрент? · Рейтинг и ограничения

Сайт не распространяет и не хранит электронные версии произведений, а лишь предоставляет доступ к создаваемому пользователями каталогу ссылок на торрент-файлы, которые содержат только списки хеш-сумм

[Профиль] [ЛС]
Показать сообщения:    
Ответить на тему

Текущее время: Сегодня 23:46

Часовой пояс: GMT + 4



Вы не можете начинать темы
Вы не можете отвечать на сообщения
Вы не можете редактировать свои сообщения
Вы не можете удалять свои сообщения
Вы не можете голосовать в опросах
Вы не можете прикреплять файлы к сообщениям
Вы не можете скачивать файлы