Волк с Уолл-стрит / The Wolf of Wall Street (Мартин Скорсезе / Martin Scorsese) [2013, США, драма, комедия, криминал, BDRip 720p] DVO + Subs Rus, Eng + Original Eng

Ответить на тему
 
Автор Сообщение

user ®

Стаж: 7 лет 7 месяцев

Сообщений: 20008

Пост Пост: #1 от 17-Мар-2014 00:50

[Цитировать]

Волк с Уолл-стритThe Wolf of Wall Street- Страна: США
Жанр: драма, комедия, криминал, биография
Год выпуска: 2013
Продолжительность: 02:59:52-Перевод: Любительский (двухголосый закадровый)
Субтитры: русские (Notabenoid, есть ненормативная лексика), английские
Оригинальная аудиодорожка: английский
Режиссер: Мартин Скорсезе / Martin Scorsese
В ролях:
Леонардо ДиКаприо, Джона Хилл, Марго Робби, Мэттью МакКонахи, Кайл Чандлер, Роб Райнер, Джон Фавро, Жан Дюжарден, Ши Уигхэм, Спайк Джонс-Описание: Джордан Белфорт основал одну из крупнейших брокерских контор в 1987 году, но десять лет спустя был осужден за отмывание денег и ряд прочих финансовых преступлений. Он справился с алкогольной и наркотической зависимостью, выработанной за время махинаций на Уолл-стрит, написал две книги и теперь читает лекции о том, как достичь успеха.-
MPAA: R - Лицам до 17 лет обязательно присутствие взрослого-Качество: BDRip
Контейнер: MKV
Сэмпл
Видео: AVC, 1280x534 (2.40:1), 5412 kbps, 23,976 fps, 0,330 bpp
Аудио №1: русский / AC3 / 5.1 / 48 kHz / 640 kbps / 16 bit |Двухголосый закадровый|
Аудио №2: английский / AC3 / 5.1 / 48 kHz / 640 kbps / 16 bit |Оригинал|
Навигация по главам: есть-

Скриншоты

Media Info

General
Unique ID : 178281116707869993800975965918310643096 (0x861FB1B1C27DB7D7B4AE71DBD1EB3598)
Complete name : D:\The.Wolf.of.Wall.Street.2013.BDRip.720p.DVO.Orig.Subs.mkv
Format : Matroska
Format version : Version 4 / Version 2
File size : 8.41 GiB
Duration : 2h 59mn
Overall bit rate : 6 693 Kbps
Movie name : Волк с Уолл-Стрит 2013
Encoded date : UTC 2014-03-14 12:21:48
Writing application : mkvmerge v6.6.0 ('The Edge Of The In Between') built on Dec 1 2013 17:55:00
Writing library : libebml v1.3.0 + libmatroska v1.4.1
Video
ID : 1
Format : AVC
Format/Info : Advanced Video Codec
Format profile : High@L4.1
Format settings, CABAC : Yes
Format settings, ReFrames : 11 frames
Codec ID : V_MPEG4/ISO/AVC
Duration : 2h 59mn
Bit rate : 5 412 Kbps
Width : 1 280 pixels
Height : 534 pixels
Display aspect ratio : 2.40:1
Frame rate : 23.976 fps
Color space : YUV
Chroma subsampling : 4:2:0
Bit depth : 8 bits
Scan type : Progressive
Bits/(Pixel*Frame) : 0.330
Stream size : 6.63 GiB (79%)
Title : The.Wolf.of.Wall.Street.2013_
Writing library : x264 core 138 r2356 a1d3d17
Encoding settings : cabac=1 / ref=11 / deblock=1:-3:-3 / analyse=0x3:0x113 / me=umh / subme=10 / psy=1 / psy_rd=1.00:0.05 / mixed_ref=1 / me_range=32 / chroma_me=1 / trellis=2 / 8x8dct=1 / cqm=0 / deadzone=21,11 / fast_pskip=0 / chroma_qp_offset=-2 / threads=18 / lookahead_threads=1 / sliced_threads=0 / nr=0 / decimate=1 / interlaced=0 / bluray_compat=0 / constrained_intra=0 / bframes=8 / b_pyramid=2 / b_adapt=2 / b_bias=0 / direct=3 / weightb=1 / open_gop=0 / weightp=2 / keyint=250 / keyint_min=23 / scenecut=40 / intra_refresh=0 / rc=2pass / mbtree=0 / bitrate=5412 / ratetol=1.0 / qcomp=0.70 / qpmin=0 / qpmax=69 / qpstep=4 / cplxblur=20.0 / qblur=0.5 / ip_ratio=1.40 / pb_ratio=1.30 / aq=2:0.90
Language : English
Default : Yes
Forced : No
Audio #1
ID : 2
Format : AC-3
Format/Info : Audio Coding 3
Mode extension : CM (complete main)
Codec ID : A_AC3
Duration : 2h 59mn
Bit rate mode : Constant
Bit rate : 640 Kbps
Channel(s) : 6 channels
Channel positions : Front: L C R, Side: L R, LFE
Sampling rate : 48.0 KHz
Bit depth : 16 bits
Compression mode : Lossy
Stream size : 823 MiB (10%)
Title : DVO
Language : Russian
Default : Yes
Forced : No
Audio #2
ID : 3
Format : AC-3
Format/Info : Audio Coding 3
Mode extension : CM (complete main)
Codec ID : A_AC3
Duration : 2h 59mn
Bit rate mode : Constant
Bit rate : 640 Kbps
Channel(s) : 6 channels
Channel positions : Front: L C R, Side: L R, LFE
Sampling rate : 48.0 KHz
Bit depth : 16 bits
Compression mode : Lossy
Stream size : 823 MiB (10%)
Title : Orig
Language : English
Default : No
Forced : No
Text #1
ID : 4
Format : UTF-8
Codec ID : S_TEXT/UTF8
Codec ID/Info : UTF-8 Plain Text
Title : Notabenoid
Language : Russian
Default : No
Forced : No
Text #2
ID : 5
Format : UTF-8
Codec ID : S_TEXT/UTF8
Codec ID/Info : UTF-8 Plain Text
Language : English
Default : No
Forced : No
Menu
00:00:00.000 : en:00:00:00.000
00:07:55.934 : en:00:07:55.934
00:14:17.857 : en:00:14:17.857
00:21:31.415 : en:00:21:31.415
00:32:08.093 : en:00:32:08.093
00:40:14.495 : en:00:40:14.495
00:48:33.577 : en:00:48:33.577
00:55:21.777 : en:00:55:21.777
01:01:56.046 : en:01:01:56.046
01:07:00.475 : en:01:07:00.475
01:11:28.910 : en:01:11:28.910
01:19:49.868 : en:01:19:49.868
01:29:06.883 : en:01:29:06.883
01:37:47.403 : en:01:37:47.403
01:45:11.931 : en:01:45:11.931
01:54:39.998 : en:01:54:39.998
02:03:20.184 : en:02:03:20.184
02:07:28.015 : en:02:07:28.015
02:17:12.850 : en:02:17:12.850
02:25:25.467 : en:02:25:25.467
02:32:08.619 : en:02:32:08.619
02:36:38.723 : en:02:36:38.723
02:44:19.266 : en:02:44:19.266
02:53:04.291 : en:02:53:04.291
Скачать

Скачать торрент!

Как скачивать? · Что такое торрент? · Рейтинг и ограничения

Сайт не распространяет и не хранит электронные версии произведений, а лишь предоставляет доступ к создаваемому пользователями каталогу ссылок на торрент-файлы, которые содержат только списки хеш-сумм

[Профиль] [ЛС]
Показать сообщения:    
Ответить на тему

Текущее время: Сегодня 22:17

Часовой пояс: GMT + 4



Вы не можете начинать темы
Вы не можете отвечать на сообщения
Вы не можете редактировать свои сообщения
Вы не можете удалять свои сообщения
Вы не можете голосовать в опросах
Вы не можете прикреплять файлы к сообщениям
Вы не можете скачивать файлы