Поймай меня / Укради моё сердце / Catch me / Steal my heart (Ли Хён Чон / Lee Hyeon-jong) [2013, Южная Корея, Мелодрама, романтика, комедия, HDRip] DVO

Ответить на тему
 
Автор Сообщение

user ®

Стаж: 13 лет

Сообщений: 15071

Пост Пост: #1 от 16-Мар-2014 21:40

[Цитировать]

Поймай меня / Укради моё сердце / Catch me / Steal my heart
Страна: Южная Корея
Жанр: Мелодрама, романтика, комедия
Год выпуска: 2013
Продолжительность: 01:55:01-Перевод: Любительский (двухголосый закадровый) Ольга Гринтиева и Андрей Черников по субтитрам Виктории Широковой
Рип: Altruist
Звук: Ольга Гринтиева
Постер: Елена Горборукова
Cубтитры: нет
Оригинальная аудиодорожка: нет-Режиссер: Ли Хён Чон / Lee Hyeon-jong
В ролях: Чжу Вон, Ким А Чжун, Пэк До Бин, Пак Чхоль Мин, Пэ Сон У-Описание: Хо Тэ гений криминального сыска. В настоящий момент он работает над поимкой серийного преступника. С его помощью детективы выследили убийцу, но в самый ответственный момент подозреваемого сбивает ниоткуда взявшийся автомобиль и уезжает в неизвестном направлении. Хо Тэ уверяет всех, что поймает горе-водителя, который разрушил все планы взять преступника живым и скрылся с места происшествия. Хо Тэ работает над этим делом и выясняет, что водителем машины была Юн Джин Сук. Он проникает в ее квартиру и лицом к лицу сталкивает с ней. Хо Тэ в шоке, увидев, что эта женщина – Ли Сук Джа – его первая школьная любовь. Вскоре Хо Тэ узнает, что она еще и профессиональный вор-домушник.- -Релиз группы
-Качество видео: HDRip (720p)
Формат видео: AVI
Видео: XviD, 720x304 (2.37:1), 24 fps, 1618 kbps avg, 0.31 bit/pixel
Аудио: Русский MPEG layer 3, 192 kbps-

MediaInfo

Format : AVI
Format/Info : Audio Video Interleave
File size : 1.46 GiB
Duration : 1h 55mn
Overall bit rate : 1 820 Kbps
Writing application : VirtualDubMod 1.5.10.2 (build 2540/release)
Writing library : VirtualDubMod build 2540/release
Video
ID : 0
Format : MPEG-4 Visual
Format profile : Advanced Simple@L5
Format settings, BVOP : 1
Format settings, QPel : No
Format settings, GMC : No warppoints
Format settings, Matrix : Custom
Codec ID : XVID
Codec ID/Hint : XviD
Duration : 1h 55mn
Bit rate : 1 619 Kbps
Width : 720 pixels
Height : 304 pixels
Display aspect ratio : 2.35:1
Frame rate : 24.000 fps
Color space : YUV
Chroma subsampling : 4:2:0
Bit depth : 8 bits
Scan type : Progressive
Compression mode : Lossy
Bits/(Pixel*Frame) : 0.308
Stream size : 1.30 GiB (89%)
Writing library : XviD 73
Audio
ID : 1
Format : MPEG Audio
Format version : Version 1
Format profile : Layer 3
Mode : Joint stereo
Codec ID : 55
Codec ID/Hint : MP3
Duration : 1h 55mn
Bit rate mode : Constant
Bit rate : 192 Kbps
Channel(s) : 2 channels
Sampling rate : 48.0 KHz
Compression mode : Lossy
Stream size : 158 MiB (11%)
Alignment : Aligned on interleaves
Interleave, duration : 42 ms (1.00 video frame)
Interleave, preload duration : 504 ms

Скриншот с названием

Скриншоты

Скачать

Скачать торрент! Поймай меня / Укради моё сердце / Catch me / Steal my heart (Ли Хён Чон / Lee Hyeon-jong) [2013, Южная Корея, Мелодрама, романтика, комедия, HDRip] DVO

Как скачивать? · Что такое торрент? · Рейтинг и ограничения

Сайт не распространяет и не хранит электронные версии произведений, а лишь предоставляет доступ к создаваемому пользователями каталогу ссылок на торрент-файлы, которые содержат только списки хеш-сумм

[Профиль] [ЛС]
Показать сообщения:    
Ответить на тему

Текущее время: Сегодня 22:19

Часовой пояс: GMT + 4



Вы не можете начинать темы
Вы не можете отвечать на сообщения
Вы не можете редактировать свои сообщения
Вы не можете удалять свои сообщения
Вы не можете голосовать в опросах
Вы не можете прикреплять файлы к сообщениям
Вы не можете скачивать файлы