Долина прощаний / Sayonara keikoku / The Ravine of Goodbye (Тацуси Омори / Tatsushi Ohmori) [2013, Япония, драма, HDRip-AVC] MVO + Jap

Ответить на тему
 
Автор Сообщение

user ®

Стаж: 11 лет

Сообщений: 15151

Пост Пост: #1 от 16-Мар-2014 21:40

[Цитировать]

Долина прощаний
Sayonara keikoku / The Ravine of Goodbye


Страна: Япония
Студия: Stardust Pictures (SDP), Studio Three Co. Ltd.
Жанр: драма
Год выпуска: 2013
Продолжительность: 01:57:42
Перевод: Профессиональный (многоголосый, закадровый) [тк Культура]
Cубтитры: English
Оригинальная аудиодорожка: Japanese
Режиссер:
Тацуси Омори / Tatsushi Ohmori
В ролях:
Хирофуми Ара, Мансаку Икеуч, Арата Иур, Хана Кин, Хоука Киносит, Йоко Мак, Izumi Mina, Масаки Миур, Сима Ониси, Энн Сузуки, Нао Омори
Описание:
В долине, в густой чаще леса, убивают ребенка. Его мать, Сатоми Татибана, арестована как главная подозреваемая. Полиция узнает, что у Сатоми роман с ее соседом Сюнсуке Одзаки. Этим делом начинает интересоваться корреспондент журнала — Ватанабе, он обнаруживает шокирующий факт…

Релиз:
Автор рипа: Stalker oK
Сэмпл: multi-up
Качество видео: HDRip-AVC [BDRip 720p WiKi]
Формат видео: MKV
Видео кодек: AVC
Аудио кодек: AC3
Видео: 2019 Кбит/сек, 960*518 (1,853), в 23,976 кадр/сек, AVC
Аудио #1: Russian, 192 Кбит/сек, 48,0 КГц, 16 бит, 2 канала(ов), AC-3
Аудио #2: Japanese, 448 Кбит/сек, 48,0 КГц, 16 бит, 6 канала(ов), AC-3

MediaInfo

Общее
Уникальный идентификатор : 172043484694257402289849847812872754848 (0x816E5EB12C31477B8B5EBD97679056A0)
Полное имя : H:The.Ravine.of.GoodbyeDolina_proshhanij_2013_HDRip_AVC_MVO_2.18__stalkerok_new-team.mkv
Формат : Matroska
Размер файла : 2,19 Гбайт
Продолжительность : 1 ч. 57 м.
Общий поток : 2659 Кбит/сек
Название фильма : Sayonara keikoku (2013) (New-Team) (Rip by Stalker oK)
Дата кодирования : UTC 2014-03-16 13:37:04
Программа кодирования : mkvmerge v6.2.0 ('Promised Land') built on Apr 28 2013 12:22:01
Библиотека кодирования : libebml v1.3.0 + libmatroska v1.4.0
Видео
Идентификатор : 1
Формат : AVC
Формат/Информация : Advanced Video Codec
Профиль формата : High@L4.1
Параметр CABAC формата : Да
Параметр ReFrames формата : 10 кадры
Идентификатор кодека : V_MPEG4/ISO/AVC
Продолжительность : 1 ч. 57 м.
Битрейт : 2019 Кбит/сек
Ширина : 960 пикс.
Высота : 518 пикс.
Соотношение сторон : 1,853
Частота кадров : 23,976 кадр/сек
Цветовое пространство : YUV
Подвыборка цветности : 4:2:0
Битовая глубина : 8 бит
Тип развёртки : Прогрессивная
Бит/(Пиксели*Кадры) : 0.169
Размер потока : 1,62 Гбайт (74%)
Библиотека кодирования : x264 core 138 r2358 9e941d1
Настройки программы : cabac=1 / ref=10 / deblock=1:-2:-2 / analyse=0x3:0x133 / me=umh / subme=10 / psy=1 / psy_rd=1.00:0.10 / mixed_ref=1 / me_range=32 / chroma_me=1 / trellis=2 / 8x8dct=1 / cqm=0 / deadzone=21,11 / fast_pskip=0 / chroma_qp_offset=-3 / threads=6 / lookahead_threads=1 / sliced_threads=0 / nr=0 / decimate=0 / interlaced=0 / bluray_compat=0 / constrained_intra=0 / bframes=11 / b_pyramid=2 / b_adapt=2 / b_bias=0 / direct=3 / weightb=1 / open_gop=0 / weightp=2 / keyint=240 / keyint_min=23 / scenecut=40 / intra_refresh=0 / rc_lookahead=80 / rc=2pass / mbtree=1 / bitrate=2019 / ratetol=1.0 / qcomp=0.65 / qpmin=0 / qpmax=69 / qpstep=4 / cplxblur=20.0 / qblur=0.5 / vbv_maxrate=20000 / vbv_bufsize=25000 / nal_hrd=none / ip_ratio=1.40 / aq=2:1.00
Аудио #1
Идентификатор : 2
Формат : AC-3
Формат/Информация : Audio Coding 3
Расширение режима : CM (complete main)
Идентификатор кодека : A_AC3
Продолжительность : 1 ч. 57 м.
Вид битрейта : Постоянный
Битрейт : 192 Кбит/сек
Канал(ы) : 2 канала(ов)
Расположение каналов : Front: L R
Частота : 48,0 КГц
Битовая глубина : 16 бит
Метод сжатия : С потерями
Размер потока : 162 Мбайт (7%)
Заголовок : AC3 2.0 @ 192 kbps ТК Культура
Язык : Russian
Аудио #2
Идентификатор : 3
Формат : AC-3
Формат/Информация : Audio Coding 3
Расширение режима : CM (complete main)
Идентификатор кодека : A_AC3
Продолжительность : 1 ч. 57 м.
Вид битрейта : Постоянный
Битрейт : 448 Кбит/сек
Канал(ы) : 6 канала(ов)
Расположение каналов : Front: L C R, Side: L R, LFE
Частота : 48,0 КГц
Битовая глубина : 16 бит
Метод сжатия : С потерями
Размер потока : 377 Мбайт (17%)
Заголовок : AC3 5.1 @ 448 kbps
Язык : Japanese
Текст
Идентификатор : 4
Формат : UTF-8
Идентификатор кодека : S_TEXT/UTF8
Идентификатор кодека/Информация : UTF-8 Plain Text
Язык : English
Меню
00:00:00.000 : en:00:00:00.000
00:10:37.511 : en:00:10:37.511
00:23:52.973 : en:00:23:52.973
00:38:02.738 : en:00:38:02.738
00:45:15.879 : en:00:45:15.879
00:54:11.456 : en:00:54:11.456
01:12:01.692 : en:01:12:01.692
01:40:35.029 : en:01:40:35.029
01:57:40.053 : en:01:57:40.053

Скриншоты

Скачать

Скачать торрент! Долина прощаний / Sayonara keikoku / The Ravine of Goodbye (Тацуси Омори / Tatsushi Ohmori) [2013, Япония, драма, HDRip-AVC] MVO + Jap

Как скачивать? · Что такое торрент? · Рейтинг и ограничения

Сайт не распространяет и не хранит электронные версии произведений, а лишь предоставляет доступ к создаваемому пользователями каталогу ссылок на торрент-файлы, которые содержат только списки хеш-сумм

[Профиль] [ЛС]
Показать сообщения:    
Ответить на тему

Текущее время: Сегодня 19:15

Часовой пояс: GMT + 4



Вы не можете начинать темы
Вы не можете отвечать на сообщения
Вы не можете редактировать свои сообщения
Вы не можете удалять свои сообщения
Вы не можете голосовать в опросах
Вы не можете прикреплять файлы к сообщениям
Вы не можете скачивать файлы