Эксперимент Ганцфельда / The Ganzfeld Haunting (Майкл Обловитц / Michael Oblowitz) [2014, США, ужасы, триллер, WEB-DL 720p] VO + Original (Eng)

Ответить на тему
 
Автор Сообщение

user ®

Стаж: 7 лет 7 месяцев

Сообщений: 20008

Пост Пост: #1 от 16-Мар-2014 21:40

[Цитировать]

Эксперимент Ганцфельда
The Ganzfeld Haunting
Страна: США
Год выпуска: 2014
Жанр: ужасы, триллер
Продолжительность: 01:26:04
Перевод: Одноголосый закадровый - Xixidok по переводу gordana75
субтитры: отсутствуют-Режиссёр: Майкл Обловитц: Michael Oblowitz
В главных ролях: Дианна Камачо, Тейлор Коул, Райан Доноху, Кимберли Эстрада, Микайла Фигуроа, Тоби Хемингуэй, Коуди Хауэлл, Холт МакКэллани, Доминик Пёрселл, Рико Симонини-Описание: Четверо ребят-студентов уезжают в загородный заброшенный особняк, чтобы провести в нем выходные и поставить опасный эксперимент Ганцфельда, который, по сути, является тестом на выявление паранормальных способностей... Поначалу поездка выглядит как увлекательное приключение. Ребята привозят с собой в большой двухэтажный дом огромное количество видео и звукозаписывающей аппаратуры, чтобы отследить каждое свое действие и все происходящие во время эксперимента события. Также они запасаются наркотиками и алкоголем, чтобы как следует «подогреть» свой разум во время опыта. Но в самый разгар опыта в доме начинают происходить странные вещи… Со временем герои понимают, что они в этом доме явно не одни, и здесь их ждет нечто ужасное. Удастся ли молодым психологам разобраться в происходящем и вырваться из страшного особняка до того, как в нем произойдут жуткие события, которые уже невозможно будет исправить?- -Качество: WEB-DL 720p
Формат: MKV
Видео кодек: AVC
Аудио кодек: АС3
Видео: 1280x544, 23.976 fps, ~3 673 kbps avg, 0.220 bit/pixel
Аудио #1: [RUS] 48 kHz, AC3 Dolby Digital, 2/0 (L,R) ch, ~192 kbps
Аудио #2: [ENG] 48 kHz, AC3 Dolby Digital, 3/2 (L,C,R,l,r) + LFE ch, ~384 kbps
навигация по главам: 10 глав (именные)

скриншоты


MediaInfo

Общее
Уникальный идентификатор : 179238370248730766451788746487632442538 (0x86D80DF013777C9C839D55FAC71734AA)
Полное имя : D:\Фильмы\Эксперимент Ганцфельда\The Ganzfeld Haunting.2014.WEB-DL 720p.mkv
Формат : Matroska
Версия формата : Version 4 / Version 2
Размер файла : 2,61 Гбайт
Продолжительность : 1 ч. 26 м.
Общий поток : 4335 Кбит/сек
Дата кодирования : UTC 2014-03-15 10:25:43
Программа кодирования : mkvmerge v6.8.0 ('Theme for Great Cities') 32bit built on Mar 2 2014 21:27:07
Библиотека кодирования : libebml v1.3.0 + libmatroska v1.4.1
Видео
Идентификатор : 1
Формат : AVC
Формат/Информация : Advanced Video Codec
Профиль формата : Main@L3.1
Параметр CABAC формата : Нет
Параметр ReFrames формата : 2 кадра
Идентификатор кодека : V_MPEG4/ISO/AVC
Продолжительность : 1 ч. 26 м.
Битрейт : 3673 Кбит/сек
Ширина : 1280 пикселей
Высота : 544 пикселя
Соотношение сторон : 2,35:1
Режим частоты кадров : Постоянный
Частота кадров : 23,976 кадра/сек
Цветовое пространство : YUV
Субдискретизация насыщенности : 4:2:0
Битовая глубина : 8 бит
Тип развёртки : Прогрессивная
Бит/(Пиксели*Кадры) : 0.220
Размер потока : 2,21 Гбайт (85%)
Язык : English
Default : Да
Forced : Нет
Основные цвета : BT.709
Характеристики трансфера : BT.709
Коэффициенты матрицы : BT.709
Аудио #1
Идентификатор : 2
Формат : AC-3
Формат/Информация : Audio Coding 3
Расширение режима : CM (complete main)
Параметр Endianness формата : Big
Идентификатор кодека : A_AC3
Продолжительность : 1 ч. 26 м.
Вид битрейта : Постоянный
Битрейт : 192 Кбит/сек
Каналы : 2 канала
Расположение каналов : Front: L R
Частота : 48,0 КГц
Битовая глубина : 16 бит
Метод сжатия : С потерями
Размер потока : 118 Мбайт (4%)
Заголовок : VO [XixiDok]
Язык : Russian
Default : Да
Forced : Нет
Аудио #2
Идентификатор : 3
Формат : AC-3
Формат/Информация : Audio Coding 3
Расширение режима : CM (complete main)
Параметр Endianness формата : Big
Идентификатор кодека : A_AC3
Продолжительность : 1 ч. 26 м.
Вид битрейта : Постоянный
Битрейт : 384 Кбит/сек
Каналы : 6 каналов
Расположение каналов : Front: L C R, Side: L R, LFE
Частота : 48,0 КГц
Битовая глубина : 16 бит
Метод сжатия : С потерями
Размер потока : 236 Мбайт (9%)
Заголовок : ENG
Язык : English
Default : Нет
Forced : Нет
Меню
00:00:00.000 : en:These Are the Events
00:09:37.000 : en:It's Freezing In Here
00:17:29.000 : en:Bad Trip?
00:26:34.000 : en:Magic and Drugs
00:37:58.000 : en:Getting Hot In Here
00:44:44.000 : en:Someone Is Here
00:55:41.000 : en:Sister
01:01:42.000 : en:Try Experiment Again
01:10:35.000 : en:Time For My Revenge
01:21:19.000 : en:Credits
Скачать

Скачать торрент!

Как скачивать? · Что такое торрент? · Рейтинг и ограничения

Сайт не распространяет и не хранит электронные версии произведений, а лишь предоставляет доступ к создаваемому пользователями каталогу ссылок на торрент-файлы, которые содержат только списки хеш-сумм

[Профиль] [ЛС]
Показать сообщения:    
Ответить на тему

Текущее время: Сегодня 20:39

Часовой пояс: GMT + 4



Вы не можете начинать темы
Вы не можете отвечать на сообщения
Вы не можете редактировать свои сообщения
Вы не можете удалять свои сообщения
Вы не можете голосовать в опросах
Вы не можете прикреплять файлы к сообщениям
Вы не можете скачивать файлы