Вий (Олег Степченко) [2013, Фэнтези, триллер, приключения, BDRip-AVC]

Ответить на тему
 
Автор Сообщение

user ®

Стаж: 7 лет 7 месяцев

Сообщений: 20008

Пост Пост: #1 от 16-Мар-2014 21:40

[Цитировать]

Вий Жанр: Фэнтези, триллер, приключения
Год выпуска: 2013
Продолжительность: 02:10:12
Режиссёр: Олег Степченко
В ролях: Джейсон Флеминг, Андрей Смоляков, Алексей Чадов, Александр Яковлев, Игорь Жижикин, Агния Дитковските, Ольга Зайцева, Валерий Золотухин, Виктор Бычков, Юрий Цурило, Анна Чурина, Чарльз Дэнс, Алексей Петрухин, Олег Тактаров, Нина Русланова, Александр Карпов, Алексей Огурцов, Иван Моховиков, Эмма Черна, Анатолий Гущин
Описание: Мистический триллер по повести Н.В.Гоголя. Начало XVIII века. Картограф Джонатан Грин совершает научное путешествие из Европы на Восток. Проследовав через Трансильванию и преодолев Карпатские горы, он попадает в затерянную среди непроходимых лесов деревушку. Только воля случая и густой туман могли занести его в это проклятое место. Народ, живущий здесь, не похож ни на один доселе виданный путешественником. Эти люди, оградив себя от остального мира глубоким рвом, наивно верят, что смогут уберечься от нечисти, не понимая, что она уже давно поселилась в их душах и только ждёт случая, чтобы вырваться наружу. Даже в страшном сне учёный-материалист не предполагал, что здесь ему уготована встреча с верным слугой дьявола.
Качество видео: BDRip-AVC |Blu-ray [3D/2D] 1080p AVC DTS-HD 5.1 HDClub|
Формат видео: MKV
Видео: AVC (x264), 1124x640 (1.76:1), ~2750 kbps, 23.976 fps, 0.159 bpp
Аудио: AС3, 48 KHz, 6 ch, 448 Kbps

Автор: nnlabetik

Семпл

x264|MediaInfo

x264 [info]


Crop(12, 0, -10, -0)
raw [info]: 1124x640p 1:1 @ 24000/1001 fps (cfr)
x264 [info]: using SAR=1/1
AspectRatio: 1.756
AspectRatioString: 16:9
x264 [info]: frame I:1764 Avg QP:18.80 size: 92059
x264 [info]: frame P:45927 Avg QP:21.33 size: 26911
x264 [info]: frame B:139618 Avg QP:22.81 size: 9202
x264 [info]: consecutive B-frames: 4.2% 3.4% 10.4% 24.7% 16.2% 37.1% 2.6% 0.6% 0.3% 0.1% 0.1% 0.0% 0.0% 0.0% 0.0% 0.3%
x264 [info]: mb I I16..4: 5.2% 76.3% 18.4%
x264 [info]: mb P I16..4: 1.2% 10.9% 1.8% P16..4: 32.7% 34.3% 9.7% 0.0% 0.0% skip: 9.4%
x264 [info]: mb B I16..4: 0.2% 1.2% 0.2% B16..8: 35.8% 19.6% 2.8% direct: 5.0% skip:35.3% L0:38.8% L1:48.5% BI:12.7%
x264 [info]: 8x8 transform intra:77.6% inter:66.6%
x264 [info]: direct mvs spatial:97.0% temporal:3.0%
x264 [info]: coded y,uvDC,uvAC intra: 81.5% 73.8% 39.8% inter: 22.7% 17.2% 1.5%
x264 [info]: i16 v,h,dc,p: 19% 18% 7% 56%
x264 [info]: i8 v,h,dc,ddl,ddr,vr,hd,vl,hu: 8% 8% 6% 10% 15% 14% 14% 12% 14%
x264 [info]: i4 v,h,dc,ddl,ddr,vr,hd,vl,hu: 9% 15% 6% 8% 13% 13% 13% 10% 13%
x264 [info]: i8c dc,h,v,p: 34% 28% 21% 17%
x264 [info]: Weighted P-Frames: Y:9.2% UV:4.4%
x264 [info]: ref P L0: 62.3% 17.1% 8.2% 4.1% 2.9% 2.8% 2.2% 0.3%
x264 [info]: ref B L0: 84.4% 8.5% 3.3% 1.7% 1.1% 0.7% 0.3%
x264 [info]: ref B L1: 95.6% 4.4%
x264 [info]: kb/s:2747.61
encoded 187309 frames, 6.62 fps, 2747.61 kb/s
Общее
Уникальный идентификатор : 212298218248761402131814939128671044950 (0x9FB72649FE0ED09BA301533AF66D0556)
Полное имя : C:\Vij_2013.x264.(AVC).mkv
Формат : Matroska
Версия формата : Version 4 / Version 2
Размер файла : 2,91 Гбайт
Продолжительность : 2 ч. 10 м.
Общий поток : 3197 Кбит/сек
Название фильма : Вий / 2013 -=NN@LIFE=-
Дата кодирования : UTC 2014-03-16 08:16:41
Программа кодирования : mkvmerge v6.8.0 ('Theme for Great Cities') 32bit built on Mar 2 2014 21:27:07
Библиотека кодирования : libebml v1.3.0 + libmatroska v1.4.1
Видео
Идентификатор : 1
Формат : AVC
Формат/Информация : Advanced Video Codec
Профиль формата : High@L4.1
Параметр CABAC формата : Да
Параметр ReFrames формата : 8 кадров
Идентификатор кодека : V_MPEG4/ISO/AVC
Продолжительность : 2 ч. 10 м.
Битрейт : 2750 Кбит/сек
Ширина : 1124 пикселя
Высота : 640 пикселей
Соотношение сторон : 16:9
Режим частоты кадров : Постоянный
Частота кадров : 23,976 кадра/сек
Цветовое пространство : YUV
Субдискретизация насыщенности : 4:2:0
Битовая глубина : 8 бит
Тип развёртки : Прогрессивная
Бит/(Пиксели*Кадры) : 0.159
Размер потока : 2,44 Гбайт (84%)
Заголовок : Rip by nnlabetik
Библиотека кодирования : x264 core 140 r2377 1ca7bb9
Настройки программы : cabac=1 / ref=8 / deblock=1:-2:-2 / analyse=0x3:0x113 / me=umh / subme=11 / psy=1 / psy_rd=1.00:0.10 / mixed_ref=1 / me_range=32 / chroma_me=1 / trellis=2 / 8x8dct=1 / cqm=0 / deadzone=21,11 / fast_pskip=1 / chroma_qp_offset=-3 / threads=6 / lookahead_threads=1 / sliced_threads=0 / nr=0 / decimate=1 / interlaced=0 / bluray_compat=0 / constrained_intra=0 / bframes=15 / b_pyramid=2 / b_adapt=2 / b_bias=0 / direct=3 / weightb=1 / open_gop=0 / weightp=1 / keyint=240 / keyint_min=23 / scenecut=40 / intra_refresh=0 / rc_lookahead=50 / rc=2pass / mbtree=0 / bitrate=2750 / ratetol=1.0 / qcomp=0.60 / qpmin=0 / qpmax=69 / qpstep=4 / cplxblur=20.0 / qblur=0.5 / vbv_maxrate=50000 / vbv_bufsize=62500 / nal_hrd=none / filler=0 / ip_ratio=1.30 / pb_ratio=1.20 / aq=1:1.00
Язык : Russian
Default : Да
Forced : Нет
Аудио
Идентификатор : 2
Формат : AC-3
Формат/Информация : Audio Coding 3
Расширение режима : CM (complete main)
Параметр Endianness формата : Big
Идентификатор кодека : A_AC3
Продолжительность : 2 ч. 10 м.
Вид битрейта : Постоянный
Битрейт : 448 Кбит/сек
Каналы : 6 каналов
Расположение каналов : Front: L C R, Side: L R, LFE
Частота : 48,0 КГц
Битовая глубина : 16 бит
Метод сжатия : С потерями
Размер потока : 417 Мбайт (14%)
Заголовок : AC3 5.1 @ 448 kbps
Язык : Russian
Default : Да
Forced : Нет
Меню
00:00:00.000 : en:Chapter 01
00:16:15.474 : en:Chapter 02
00:32:07.634 : en:Chapter 03
00:44:54.650 : en:Chapter 04
01:07:12.194 : en:Chapter 05
01:20:37.791 : en:Chapter 06
01:37:30.803 : en:Chapter 07
01:52:43.131 : en:Chapter 08
02:10:12.304 : en:Chapter 09

Скриншоты

Скачать

Скачать торрент!

Как скачивать? · Что такое торрент? · Рейтинг и ограничения

Сайт не распространяет и не хранит электронные версии произведений, а лишь предоставляет доступ к создаваемому пользователями каталогу ссылок на торрент-файлы, которые содержат только списки хеш-сумм

[Профиль] [ЛС]

HAK1717

Стаж: 2 года 8 месяцев

Сообщений: 1

Пост Пост: #2 от 18-Мар-2014 07:18 (спустя 1 день 9 часов)

[Цитировать]

пацани скорость дайте пожалуста
[Профиль] [ЛС]
Показать сообщения:    
Ответить на тему

Текущее время: Сегодня 12:37

Часовой пояс: GMT + 4



Вы не можете начинать темы
Вы не можете отвечать на сообщения
Вы не можете редактировать свои сообщения
Вы не можете удалять свои сообщения
Вы не можете голосовать в опросах
Вы не можете прикреплять файлы к сообщениям
Вы не можете скачивать файлы