Предводитель / Thalaivaa (А.Л.Виджай / A.L.Vijay) [2013, Индия, драма, боевик, DVDRip] Sub Rus

Ответить на тему
 
Автор Сообщение

user ®

Стаж: 12 лет

Сообщений: 15092

Пост Пост: #1 от 16-Мар-2014 10:05

[Цитировать]

Предводитель / Thalaivaa
Страна: Индия
Жанр: драма, боевик
Год выпуска: 2013
Продолжительность: 02:48:47
Перевод: Субтитры
Cубтитры: русские
Оригинальная аудиодорожка: тамильская
Перевод субтитров: wita
Режиссер: А.Л.Виджай / A.L.Vijay
В ролях: Виджай, Амала Пол, Сатьярадж, Абхиманью Сингх, Сантанам, Раджив Пиллай, Рагини Нандвани
Описание: Вишва – тамильский австралиец, живет себе в Сиднее размеренной жизнью, владеет доходным бизнесом, мечтает победить вместе с товарищами в танцевальном конкурсе. Недавно вот встретил красивую девушку-тамилку Миру, у которой папашка со странностями. А еще Вишва обожает своего отца – тот живет в Мумбаи, навещает сына раз в год и категорически запрещает парню ступать на индийскую землю под любым предлогом. Тем не менее, когда речь заходит о предстоящей свадьбе, Вишва забирает невесту с будущим тестем и летит в столицу Махараштры. Только по прилету его встретили вовсе не распахнутые объятия отца...
Дополнительно. Для тех, кто будет брать релиз на другие ресурсы, убедительная просьба: сохраняйте оформление до буквы. И настоятельно прошу самых наглых не вырезать имя переводчика из субтитров.
Реализация рипа с моими субтитрами через интернет-магазины не предусмотрена

Сэмпл: http://multi-up.com/959155
Качество видео: DVDRip
Формат видео: AVI
Видео: XviD, 672х288, 2.35:1, 23.976 fps, 962 Kbps
Аудио: AC-3, 48.0 kHz, 256 Kbps, 6 channels, Original
Формат субтитров: hardsub (неотключаемые)

MediaInfo

General
Complete name : I:\кино - Индия\Predvoditel.2013.DVDRip.XviD.tw.avi
Format : AVI
Format/Info : Audio Video Interleave
File size : 1.45 GiB
Duration : 2h 48mn
Overall bit rate : 1 228 Kbps
Writing application : VirtualDubMod 1.5.10.2 (build 2542/release)
Writing library : VirtualDubMod build 2542/release
Video
ID : 0
Format : MPEG-4 Visual
Format profile : Advanced Simple@L5
Format settings, BVOP : Yes
Format settings, QPel : No
Format settings, GMC : No warppoints
Format settings, Matrix : Default (H.263)
Muxing mode : Packed bitstream
Codec ID : XVID
Codec ID/Hint : XviD
Duration : 2h 48mn
Bit rate : 962 Kbps
Width : 672 pixels
Height : 288 pixels
Display aspect ratio : 2.35:1
Frame rate : 23.976 fps
Color space : YUV
Chroma subsampling : 4:2:0
Bit depth : 8 bits
Scan type : Progressive
Bits/(Pixel*Frame) : 0.207
Stream size : 1.13 GiB (78%)
Writing library : XviD 1.2.1 (UTC 2008-12-04)
Audio
ID : 1
Format : AC-3
Format/Info : Audio Coding 3
Mode extension : CM (complete main)
Codec ID : 2000
Duration : 2h 48mn
Bit rate mode : Constant
Bit rate : 256 Kbps
Channel(s) : 6 channels
Channel positions : Front: L C R, Side: L R, LFE
Sampling rate : 48.0 KHz
Stream size : 309 MiB (21%)
Alignment : Split accross interleaves
Interleave, duration : 42 ms (1.00 video frame)
Interleave, preload duration : 500 ms

Скриншот c названием фильма

Скриншоты





Скачать

Скачать торрент! Предводитель / Thalaivaa (А.Л.Виджай / A.L.Vijay) [2013, Индия, драма, боевик, DVDRip] Sub Rus

Как скачивать? · Что такое торрент? · Рейтинг и ограничения

Сайт не распространяет и не хранит электронные версии произведений, а лишь предоставляет доступ к создаваемому пользователями каталогу ссылок на торрент-файлы, которые содержат только списки хеш-сумм

[Профиль] [ЛС]
Показать сообщения:    
Ответить на тему

Текущее время: Сегодня 18:08

Часовой пояс: GMT + 4



Вы не можете начинать темы
Вы не можете отвечать на сообщения
Вы не можете редактировать свои сообщения
Вы не можете удалять свои сообщения
Вы не можете голосовать в опросах
Вы не можете прикреплять файлы к сообщениям
Вы не можете скачивать файлы