Шаолинь против ламы / Shaolin Vs. Lama / Shao lin dou La Ma (Ли Цзонань / Lee Tso-Nam) [1983, Гонконг, боевые искусства, DVDRip] AVO (Александр Кашкин-Первомайский)

Ответить на тему
 
Автор Сообщение

user ®

Стаж: 13 лет

Сообщений: 15071

Пост Пост: #1 от 15-Мар-2014 22:40

[Цитировать]

Шаолинь против ламы / Shaolin Vs. Lama / Shao lin dou La Ma
Страна: Гонконг
Жанр: боевые искусства
Год выпуска: 1983
Продолжительность: 01:30:21
Перевод: Авторский (одноголосый закадровый) Александр Кашкин-Первомайский
Cубтитры: английские, китайские
Режиссер: Ли Цзонань / Lee Tso-Nam
В ролях: Александр Ло, Чэнь Шань, Ван Цишэн, Сунь Жунчжи, Янь Чжан, Чжан Цзипин, Ли Хуэйюнь, Пэн Цзиньвань
Описание: Синг Йо-Тинг уже пять лет бродит по Китаю, пытаясь найти себе учителя. Нет, он не настолько плох, что его никто не берет - наоборот, испытывая своих потенциальных учителей, он постоянно разочаровывается в их умении, постоянно их побеждая. Но в один прекрасный день он забредает в храм Шаолинь, где находит-таки себе потенциального учителя, который с легкостью победил его. Проблема только в том, что он не хочет брать себе в ученики чужака - когда-то один из таких чужаков, Чи Чунг оказался ламой, укравшим из храма древний манускрипт с секретным стилем. Синг решает вступить в монахи и поклясться, что вернет эту книгу, если его возьмут в ученики.
Доп. информация: Автор рипа - MaksBuf123.
Сэмпл: http://multi-up.com/958764
Качество видео: DVDRip
Формат видео: AVI
Видео: 720x272 (2.65:1), 23.976 fps, XviD build 64 ~1995 kbps avg, 0.42 bit/pixel
Аудио: 48 kHz, AC3 Dolby Digital, 2/0 (L,R) ch, ~192 kbps
Формат субтитров: hardsub (неотключаемые)

MediaInfo

Format : AVI
Format/Info : Audio Video Interleave
File size : 1,39 Гбайт
Duration : 1 ч. 30 м.
Overall bit rate : 2196 Кбит/сек
Writing application : VirtualDubMod 1.5.10.2 (build 2540/release)
Writing library : VirtualDubMod build 2540/release
Видео
ID : 0
Format : MPEG-4 Visual
Format profile : Advanced Simple@L5
Format settings, BVOP : 1
Format settings, QPel : Нет
Format settings, GMC : Без точки перехода
Format settings, Matrix : Default (MPEG)
Codec ID : XVID
Codec ID/Hint : XviD
Duration : 1 ч. 30 м.
Bit rate : 1995 Кбит/сек
Width : 720 пикселей
Height : 272 пикселя
Display aspect ratio : 2,647
Frame rate : 23,976 кадра/сек
Color space : YUV
Chroma subsampling : 4:2:0
Bit depth : 8 бит
Scan type : Прогрессивная
Compression mode : С потерями
Bits/(Pixel*Frame) : 0.425
Stream size : 1,26 Гбайт (91%)
Writing library : XviD 64
Аудио
ID : 1
Format : AC-3
Format/Info : Audio Coding 3
Mode extension : CM (complete main)
Format settings, Endianness : Big
Codec ID : 2000
Duration : 1 ч. 30 м.
Bit rate mode : Постоянный
Bit rate : 192 Кбит/сек
Channel(s) : 2 канала
Channel positions : Front: L R
Sampling rate : 48,0 КГц
Bit depth : 16 бит
Compression mode : С потерями
Stream size : 124 Мбайт (9%)
Alignment : Разделение по промежуткам
Interleave, duration : 42 мс. (1,00 видеокадр)
Interleave, preload duration : 500 мс.

Скриншот c названием фильма

Скриншоты

Скачать

Скачать торрент! Шаолинь против ламы / Shaolin Vs. Lama / Shao lin dou La Ma (Ли Цзонань / Lee Tso-Nam) [1983, Гонконг, боевые искусства, DVDRip] AVO (Александр Кашкин-Первомайский)

Как скачивать? · Что такое торрент? · Рейтинг и ограничения

Сайт не распространяет и не хранит электронные версии произведений, а лишь предоставляет доступ к создаваемому пользователями каталогу ссылок на торрент-файлы, которые содержат только списки хеш-сумм

[Профиль] [ЛС]
Показать сообщения:    
Ответить на тему

Текущее время: Сегодня 18:20

Часовой пояс: GMT + 4



Вы не можете начинать темы
Вы не можете отвечать на сообщения
Вы не можете редактировать свои сообщения
Вы не можете удалять свои сообщения
Вы не можете голосовать в опросах
Вы не можете прикреплять файлы к сообщениям
Вы не можете скачивать файлы