Аравт – 10 солдат Чингисхана / Genghis: The Legend of the Ten / Aravt - Ten Soldiers of Chinggis Khaan (Д. Золбаяр / D. Jolbayar, У. Шагдарсүрэн / U. Shagdarsuren) [2012, Монголия, Исторический, военный, BDRip] MVO (Trivor)

Ответить на тему
 
Автор Сообщение

user ®

Стаж: 11 лет

Сообщений: 15151

Пост Пост: #1 от 15-Мар-2014 19:30

[Цитировать]

Аравт – 10 солдат ЧингисханаGenghis: The Legend of the Ten / Aravt - Ten Soldiers of Chinggis Khaan- Страна: Монголия
Жанр: Исторический, военный
Год выпуска: 2012
Продолжительность: 01:32:00-Перевод: Любительский (многоголосый закадровый) [Trivor]
Cубтитры: нет-Режиссер: Д. Золбаяр / D. Jolbayar, У. Шагдарсүрэн / U. Shagdarsuren-В ролях: Т. Алтаншагай, Б. Амарканихан, Аюрдади, Ба Сэнь Чжа Бу, Боди, Д. Ганцэцэг, Д. Гурсэ, Жамбал-Описание: 13 век, период когда Чингисхан вел борьбу, направленную на объединение монгольских племен. После одной из жестоких битв с восставшим племенем среди его солдат разразилась эпидемия чумы. Чингисхан отдает приказ подразделению из 10 воинов (десяток – аравт) найти известного врачевателя живущего в далеких горах, недалеко от кочевий восставшего племени. Какие опасности лежат на пути этих 10 воинов известно одному лишь Вечному Синему небу.-Благодарность:
- за перевод субтитров: Iceman 1212, yujin 79
- за озвучку: Teyrean, Макс Арефьев, Hronos, GalVid
-Sample | IMDB | КиноПоиск-Тип релиза: BDRip [исх. BDRemux 1080p]

Формат видео: AVI-Видео: 720x304 (2.37:1), 24.000 fps, XviD build 50, 2074 kbps avg, 0.40 bit/pixel
Аудио: 48 kHz, AC3 Dolby Digital, 2/0 (L,R) ch, 192.00 kbps avg [Russian_MVO]-Релиз группы:[

MediaInfo

General
Complete name : D:\Мои релизы\Aravt_BDRip_RG_All_Films.avi
Format : AVI
Format/Info : Audio Video Interleave
File size : 1.46 GiB
Duration : 1h 32mn
Overall bit rate : 2 276 Kbps
Writing application : VirtualDubMod 1.5.10.3
Writing library : VirtualDubMod build 2550/release
Video
ID : 0
Format : MPEG-4 Visual
Format profile : Advanced Simple@L5
Format settings, BVOP : Yes
Format settings, QPel : No
Format settings, GMC : No warppoints
Format settings, Matrix : Custom
Codec ID : XVID
Codec ID/Hint : XviD
Duration : 1h 32mn
Bit rate : 2 075 Kbps
Width : 720 pixels
Height : 304 pixels
Display aspect ratio : 2.35:1
Frame rate : 24.000 fps
Color space : YUV
Chroma subsampling : 4:2:0
Bit depth : 8 bits
Scan type : Progressive
Compression mode : Lossy
Bits/(Pixel*Frame) : 0.395
Stream size : 1.33 GiB (91%)
Writing library : XviD 1.2.1 (UTC 2008-12-04)
Audio
ID : 1
Format : AC-3
Format/Info : Audio Coding 3
Mode extension : CM (complete main)
Codec ID : 2000
Duration : 1h 32mn
Bit rate mode : Constant
Bit rate : 192 Kbps
Channel(s) : 2 channels
Channel positions : Front: L R
Sampling rate : 48.0 KHz
Bit depth : 16 bits
Compression mode : Lossy
Stream size : 126 MiB (8%)
Alignment : Split accross interleaves
Interleave, duration : 42 ms (1.00 video frame)
Interleave, preload duration : 500 ms

Скриншоты

Скачать

Скачать торрент! Аравт – 10 солдат Чингисхана / Genghis: The Legend of the Ten / Aravt - Ten Soldiers of Chinggis Khaan (Д. Золбаяр / D. Jolbayar, У. Шагдарсүрэн / U. Shagdarsuren) [2012, Монголия, Исторический, военный, BDRip] MVO (Trivor)

Как скачивать? · Что такое торрент? · Рейтинг и ограничения

Сайт не распространяет и не хранит электронные версии произведений, а лишь предоставляет доступ к создаваемому пользователями каталогу ссылок на торрент-файлы, которые содержат только списки хеш-сумм

[Профиль] [ЛС]
Показать сообщения:    
Ответить на тему

Текущее время: Сегодня 00:20

Часовой пояс: GMT + 4



Вы не можете начинать темы
Вы не можете отвечать на сообщения
Вы не можете редактировать свои сообщения
Вы не можете удалять свои сообщения
Вы не можете голосовать в опросах
Вы не можете прикреплять файлы к сообщениям
Вы не можете скачивать файлы