Скуби-Ду! Музыка вампира / Scooby-Doo! Music of the Vampire (Дэвид Блок / David Block) [2011, мультфильм, детектив, WEB-DLRip] Dub + Eng + Sub (rus, eng)

Ответить на тему
 
Автор Сообщение

user ®

Стаж: 11 лет

Сообщений: 15145

Пост Пост: #1 от 15-Мар-2014 16:20

[Цитировать]

Скуби-Ду! Музыка вампира / Scooby-Doo! Music of the Vampire- Страна: США
Жанр: мультфильм, детектив
Год выпуска: 2011
Продолжительность: 01:18:14
Перевод: Профессиональный (полное дублирование)
Субтитры: Есть-Режиссер: Дэвид Блок / David Block-Описание: Главный герой Скуби-Ду и его команда Шэгги, Фредди, Дафни и Велма берутся за новое дело. Но дело это не обычное, на сей раз им предстоит встреча с потусторонними существами, такими как вампиры и оборотни. Но эта отважная пятерка детективов не боится ни чего, и отправляется в самое логово злодеев...-Рейтинг:
-Мировая премьера: 16 декабря 2011
Релиз на DVD: 29 марта 2012, «CP Дистрибуция»--Семпл-Качество: WEB-DLRip [Scooby.Doo.Music.of.the.Vampire.2011.1080p.WEB-DL.Rus.Eng.HDCLUB]
Формат: AVI
Видео: 720x400 (1.80:1), 23.976 fps, XviD build 65 ~2081 kbps avg, 0.30 bit/pixel
Аудио: 48 kHz, AC3 Dolby Digital, 2/0 (L,R) ch, ~192 kbps
Аудио 2: 48 kHz, AC3 Dolby Digital, 3/2 (L,C,R,l,r) + LFE ch, ~384 kbps
Субтитры: Русские (Полные, форсированные (Srt)), Английские (Srt)-

MI

Format : AVI Format/Info : Audio Video Interleave File size : 1.46 GiB Duration : 1h 18mn Overall bit rate : 2 673 Kbps Writing application : VirtualDubMod 1.5.10.3 | www.virtualdub-fr.org || (build 2550/release) Writing library : VirtualDubMod build 2550/release
Video ID : 0 Format : MPEG-4 Visual Format profile : Advanced Simple@L5 Format settings, BVOP : 2 Format settings, QPel : No Format settings, GMC : No warppoints Format settings, Matrix : Custom Codec ID : XVID Codec ID/Hint : XviD Duration : 1h 18mn Bit rate : 2 083 Kbps Width : 720 pixels Height : 400 pixels Display aspect ratio : 16:9 Frame rate : 23.976 fps Color space : YUV Chroma subsampling : 4:2:0 Bit depth : 8 bits Scan type : Progressive Compression mode : Lossy Bits/(Pixel*Frame) : 0.302 Stream size : 1.14 GiB (78%) Writing library : XviD 65
Audio #1 ID : 1 Format : AC-3 Format/Info : Audio Coding 3 Format profile : Dolby Digital Mode extension : CM (complete main) Format settings, Endianness : Big Codec ID : 2000 Duration : 1h 18mn Bit rate mode : Constant Bit rate : 192 Kbps Channel count : 2 channels Channel positions : Front: L R Sampling rate : 48.0 KHz Bit depth : 16 bits Compression mode : Lossy Stream size : 107 MiB (7%) Alignment : Split accross interleaves Interleave, duration : 42 ms (1.00 video frame) Interleave, preload duration : 500 ms
Audio #2 ID : 2 Format : AC-3 Format/Info : Audio Coding 3 Mode extension : CM (complete main) Format settings, Endianness : Big Codec ID : 2000 Duration : 1h 18mn Bit rate mode : Constant Bit rate : 384 Kbps Channel count : 6 channels Channel positions : Front: L C R, Side: L R, LFE Sampling rate : 48.0 KHz Bit depth : 16 bits Compression mode : Lossy Stream size : 215 MiB (14%) Alignment : Split accross interleaves Interleave, duration : 42 ms (1.00 video frame) Interleave, preload duration : 500 ms
Скачать

Скачать торрент! Скуби-Ду! Музыка вампира / Scooby-Doo! Music of the Vampire (Дэвид Блок / David Block) [2011, мультфильм, детектив, WEB-DLRip] Dub + Eng + Sub (rus, eng)

Как скачивать? · Что такое торрент? · Рейтинг и ограничения

Сайт не распространяет и не хранит электронные версии произведений, а лишь предоставляет доступ к создаваемому пользователями каталогу ссылок на торрент-файлы, которые содержат только списки хеш-сумм

[Профиль] [ЛС]
Показать сообщения:    
Ответить на тему

Текущее время: Сегодня 19:01

Часовой пояс: GMT + 4



Вы не можете начинать темы
Вы не можете отвечать на сообщения
Вы не можете редактировать свои сообщения
Вы не можете удалять свои сообщения
Вы не можете голосовать в опросах
Вы не можете прикреплять файлы к сообщениям
Вы не можете скачивать файлы