Нереальная любовь (Арман Геворгян) [2014, Комедия, приключения, DVDRip]

Ответить на тему
 
Автор Сообщение

user ®

Стаж: 7 лет 7 месяцев

Сообщений: 20008

Пост Пост: #1 от 15-Мар-2014 16:20

[Цитировать]

Нереальная любовь
Жанр: Комедия, приключения
Год выпуска: 2014
Продолжительность: 01:19:50
Режиссёр: Арман Геворгян
В ролях: Игорь Верник, Егор Пазенко, Гоша Куценко, Егор Бероев, Волга Король, Герман Шпригов, Янина Студилина, Дмитрий Ендальцев, Олеся Пуховая, Юрий Базик, Анатолий Голуб, Сергей Журавель, Анна Щербинина, Анатолий Терпицкий, Оскар Кучера, Марина Александрова, Равшана Куркова, Фрида Геворгян, Сергей Новицкий, Катя Король
Описание: Мира и Ольга когда-то учились в одном классе, и спустя 10 лет случайно встречаются вновь. Светская львица решает наладить личную жизнь одноклассницы и помогает ей превратиться из наивной серой мышки в роковую красотку. Девушки отправляются в Сочи, где проходит бизнес-форум, в поисках единственного и неповторимого. Московские красотки без труда покоряют мужские сердца, попав в водоворот романтических приключений.

Качество видео: DVDRip
Формат видео: AVI
Видео: XviD, 720x304 (2.35:1), 25 кадр/с, 1093 Кбит/с
Аудио: Русский, MP3, 48000 Гц, 128 Кбит/с, 2 канала (Стерео)

MediaInfo

Общее
Полное имя : Nerealnaya.Lubov.2014.O.DVDRip.700MB.avi
Формат : AVI
Формат/Информация : Audio Video Interleave
Размер файла : 703 Мбайт
Продолжительность : 1 ч. 19 м.
Общий поток : 1231 Кбит/сек
Программа кодирования : VirtualDubMod 1.5.10.3 | www.virtualdub-fr.org || (build 2550/release)
Библиотека кодирования : VirtualDubMod build 2550/release
Видео
Идентификатор : 0
Формат : MPEG-4 Visual
Профиль формата : Advanced Simple@L5
Параметр BVOP формата : 2
Параметр QPel формата : Нет
Параметр GMC формата : Без точки перехода
Параметр матрицы формата : Default (MPEG)
Идентификатор кодека : XVID
Идентификатор кодека/Подсказка : XviD
Продолжительность : 1 ч. 19 м.
Битрейт : 1093 Кбит/сек
Ширина : 720 пикселей
Высота : 304 пикселя
Соотношение сторон : 2,35:1
Частота кадров : 25,000 кадров/сек
Цветовое пространство : YUV
Субдискретизация насыщенности : 4:2:0
Битовая глубина : 8 бит
Тип развёртки : Прогрессивная
Метод сжатия : С потерями
Бит/(Пиксели*Кадры) : 0.200
Размер потока : 624 Мбайт (89%)
Библиотека кодирования : XviD 73
Аудио
Идентификатор : 1
Формат : MPEG Audio
Версия формата : Version 1
Профиль формата : Layer 3
Идентификатор кодека : 55
Идентификатор кодека/Подсказка : MP3
Продолжительность : 1 ч. 19 м.
Вид битрейта : Постоянный
Битрейт : 128 Кбит/сек
Каналы : 2 канала
Частота : 48,0 КГц
Метод сжатия : С потерями
Размер потока : 73,1 Мбайт (10%)
Выравнивание : Соединение по промежуткам
Продолжительность промежутка : 40 мс. (1,00 видеокадр)
Время предзагрузки промежутка : 504 мс.
Библиотека кодирования : LAME3.99r
Настройки программы : -m s -V 4 -q 2 -lowpass 17 -b 128

Скриншот c названием фильма

Скриншоты

Скачать

Скачать торрент!

Как скачивать? · Что такое торрент? · Рейтинг и ограничения

Сайт не распространяет и не хранит электронные версии произведений, а лишь предоставляет доступ к создаваемому пользователями каталогу ссылок на торрент-файлы, которые содержат только списки хеш-сумм

[Профиль] [ЛС]
Показать сообщения:    
Ответить на тему

Текущее время: Сегодня 15:37

Часовой пояс: GMT + 4



Вы не можете начинать темы
Вы не можете отвечать на сообщения
Вы не можете редактировать свои сообщения
Вы не можете удалять свои сообщения
Вы не можете голосовать в опросах
Вы не можете прикреплять файлы к сообщениям
Вы не можете скачивать файлы