Львиная доля (Александр Муратов) [2001 г., Россия, боевик, криминал, DVDRip]

Ответить на тему
 
Автор Сообщение

user ®

Стаж: 7 лет 7 месяцев

Сообщений: 20008

Пост Пост: #1 от 15-Мар-2014 01:40

[Цитировать]

Львиная доля«Нет ничего хуже незаконченных дел»-Страна: Россия
Жанр: боевик, криминал
Год выпуска: 2001
Продолжительность: 01:43:13 (154817 frames)-Cубтитры: нет-Режиссер: Александр Муратов-В ролях: Николай Караченцов, Юрий Беляев, Чулпан Хаматова, Дмитрий Марьянов, Дмитрий Певцов, Вячеслав Молоков, Николай Чиндяйкин, Владимир Зайцев, Александр Дьяченко, Владимир Большов, Борис Клюев, Степан Старчиков, Любовь Ульянова, Тамара Акулова, Наталья Назарова, Вячеслав Жолобов, Сергей Видинеев, Геннадий Назаров, Олег Комаров, Дмитрий Ульянов, Андрей Межулис, Егор Пазенко, Олег Семисынов, Михаил Леонцев, Андрей Резвый-Описание: Когда-то они были специальным подразделением ФСБ, выполнявшим особо важные задания. Но после одной неудачной операции — похищен портативный ядерный заряд — они были уволены со службы и едва избежали тюрьмы.
Однако все незаконченные дела рано или поздно начинают создавать большие проблемы — «потерянный» заряд оказывается в руках у бандитов. И вот преуспевающий бизнесмен, частный телохранитель и спившийся безработный снова объединяются в одну команду, чтобы вернуть старый «должок».
С самого начала события складываются вопреки задуманному плану. Герои находятся под плотным контролем преступников, и это может быть связано только с предательством…
-Качество видео: DVDRip
Формат видео: AVI
Видео: XviD, 688x416 (1.65:1), 25 fps, 1814 kbps avg
Аудио: Rus АVO - AC3 Dolby Digital, 48 kHz, 192.00 kbps, 2/0 (L,R) ch-рип

Скриншоты

MediaInfo

Общее
Полное имя                               : Lvinaya_dolya.2001.XviD.DVDRip.avi
Формат                                   : AVI
Формат/Информация                        : Audio Video Interleave
Размер файла                             : 1,45 Гбайт
Продолжительность                        : 1 ч. 43 м.
Общий поток                              : 2016 Кбит/сек
Название фильма                          : Lvinaya_dolya.2001.XviD.DVDRip
Режиссёр                                 : AMAPAHT
Программа кодирования                    : VirtualDubMod 1.5.10.3 | www.virtualdub-fr.org || (build 2550/release)
Видео
Идентификатор                            : 0
Формат                                   : MPEG-4 Visual
Профиль формата                          : Advanced Simple@L5
Параметр BVOP формата                    : 2
Параметр QPel формата                    : Нет
Параметр GMC формата                     : Без точки перехода
Параметр матрицы формата                 : Выборочная
Идентификатор кодека                     : XVID
Идентификатор кодека/Подсказка           : XviD
Продолжительность                        : 1 ч. 43 м.
Битрейт                                  : 1815 Кбит/сек
Ширина                                   : 688 пикселей
Высота                                   : 416 пикселей
Соотношение сторон                       : 1,654
Частота кадров                           : 25,000 кадров/сек
Цветовое пространство                    : YUV
Субдискретизация насыщенности            : 4:2:0
Битовая глубина                          : 8 бит
Тип развёртки                            : Прогрессивная
Метод сжатия                             : С потерями
Бит/(Пиксели*Кадры)                      : 0.254
Размер потока                            : 1,31 Гбайт (90%)
Библиотека кодирования                   : XviD 73
Аудио
Идентификатор                            : 1
Формат                                   : AC-3
Формат/Информация                        : Audio Coding 3
Расширение режима                        : CM (complete main)
Параметр Endianness формата              : Big
Идентификатор кодека                     : 2000
Продолжительность                        : 1 ч. 43 м.
Вид битрейта                             : Постоянный
Битрейт                                  : 192 Кбит/сек
Каналы                                   : 3 канала
Расположение каналов                     : Front: L R, LFE
Частота                                  : 48,0 КГц
Битовая глубина                          : 16 бит
Метод сжатия                             : С потерями
Размер потока                            : 142 Мбайт (10%)
Выравнивание                             : Разделение по промежуткам
Продолжительность промежутка             : 40  мс. (1,00 видеокадр)
Время предзагрузки промежутка            : 500  мс.
Скачать

Скачать торрент!

Как скачивать? · Что такое торрент? · Рейтинг и ограничения

Сайт не распространяет и не хранит электронные версии произведений, а лишь предоставляет доступ к создаваемому пользователями каталогу ссылок на торрент-файлы, которые содержат только списки хеш-сумм

[Профиль] [ЛС]
Показать сообщения:    
Ответить на тему

Текущее время: Сегодня 06:24

Часовой пояс: GMT + 4



Вы не можете начинать темы
Вы не можете отвечать на сообщения
Вы не можете редактировать свои сообщения
Вы не можете удалять свои сообщения
Вы не можете голосовать в опросах
Вы не можете прикреплять файлы к сообщениям
Вы не можете скачивать файлы