Отдыхай, Скуби-Ду! / Chill Out, Scooby-Doo! (Джо Сичта / Joe Sichta) [2007, мультфильм, комедия, криминал, WEB-DLRip] Dub + Eng + Sub (rus)

Ответить на тему
 
Автор Сообщение

user ®

Стаж: 13 лет

Сообщений: 15041

Пост Пост: #1 от 14-Мар-2014 22:30

[Цитировать]

Отдыхай, Скуби-Ду! / Chill Out, Scooby-Doo!- Страна: США
Жанр: мультфильм, комедия, криминал, детектив, семейный
Год выпуска: 2007
Продолжительность: 01:12:47
Перевод: Профессиональный (полное дублирование)
Субтитры: Есть-Режиссер: Джо Сичта / Joe Sichta-Описание: Парижские каникулы не сложились, когда Скуби-Ду и Шэгги упустили свой рейс и оказались в экстремальной экспедиции почти на другом конце света. Путешествие, которое должно было быть прекрасным отдыхом в Городе Огней, обернулось ужасом в Гималаях, когда неразлучная парочка друзей встретилась лицом к лицу с Ужасным Снежным Монстром! Похоже, чудовище распространяет леденящий ужас. Друзья удирают через древние монастыри, пробираются через подземные пещеры, спасаются от лавин и пытаются разгадать Загадки Горы Эверест до того, как страшное чудовище заморозит их навсегда!-Рейтинг:
-Мировая премьера: 4 сентября 2007
Релиз на DVD: 15 июня 2009 «Юниверсал Пикчерс Рус»-Семпл-Качество: WEB-DLRip [Chill.Out.Scooby-Doo.2007.720p.WEB-DL.Rus.Eng.HDCLUB]
Формат: AVI
Видео: 720x400 (1.80:1), 23.976 fps, XviD build 65 ~2303 kbps avg, 0.33 bit/pixel
Аудио: 48 kHz, AC3 Dolby Digital, 2/0 (L,R) ch, ~192 kbps - Rus
Аудио 2: 48 kHz, AC3 Dolby Digital, 2/0 (L,R) ch, ~192 kbps - Eng
Субтитры: Русские (Полные, форсированные (Srt))
-

MI

Format : AVIFormat/Info : Audio Video InterleaveFile size : 1.37 GiBDuration : 1h 12mnOverall bit rate : 2 703 KbpsWriting application : VirtualDubMod 1.5.10.3 | www.virtualdub-fr.org || (build 2550/release)Writing library : VirtualDubMod build 2550/release
VideoID : 0Format : MPEG-4 VisualFormat profile : Advanced Simple@L5Format settings, BVOP : 2Format settings, QPel : NoFormat settings, GMC : No warppointsFormat settings, Matrix : CustomCodec ID : XVIDCodec ID/Hint : XviDDuration : 1h 12mnBit rate : 2 304 KbpsWidth : 720 pixelsHeight : 400 pixelsDisplay aspect ratio : 16:9Frame rate : 23.976 fpsColor space : YUVChroma subsampling : 4:2:0Bit depth : 8 bitsScan type : ProgressiveCompression mode : LossyBits/(Pixel*Frame) : 0.334Stream size : 1.17 GiB (85%)Writing library : XviD 65
Audio #1ID : 1Format : AC-3Format/Info : Audio Coding 3Mode extension : CM (complete main)Format settings, Endianness : BigCodec ID : 2000Duration : 1h 12mnBit rate mode : ConstantBit rate : 192 KbpsChannel count : 2 channelsChannel positions : Front: L RSampling rate : 48.0 KHzBit depth : 16 bitsCompression mode : LossyStream size : 100.0 MiB (7%)Alignment : Split accross interleavesInterleave, duration : 42 ms (1.00 video frame)Interleave, preload duration : 500 ms
Audio #2ID : 2Format : AC-3Format/Info : Audio Coding 3Mode extension : CM (complete main)Format settings, Endianness : BigCodec ID : 2000Duration : 1h 12mnBit rate mode : ConstantBit rate : 192 KbpsChannel count : 2 channelsChannel positions : Front: L RSampling rate : 48.0 KHzBit depth : 16 bitsCompression mode : LossyStream size : 100.0 MiB (7%)Alignment : Split accross interleavesInterleave, duration : 42 ms (1.00 video frame)Interleave, preload duration : 500 ms
Скачать

Скачать торрент! Отдыхай, Скуби-Ду! / Chill Out, Scooby-Doo! (Джо Сичта / Joe Sichta) [2007, мультфильм, комедия, криминал, WEB-DLRip] Dub + Eng + Sub (rus)

Как скачивать? · Что такое торрент? · Рейтинг и ограничения

Сайт не распространяет и не хранит электронные версии произведений, а лишь предоставляет доступ к создаваемому пользователями каталогу ссылок на торрент-файлы, которые содержат только списки хеш-сумм

[Профиль] [ЛС]
Показать сообщения:    
Ответить на тему

Текущее время: Сегодня 20:49

Часовой пояс: GMT + 4



Вы не можете начинать темы
Вы не можете отвечать на сообщения
Вы не можете редактировать свои сообщения
Вы не можете удалять свои сообщения
Вы не можете голосовать в опросах
Вы не можете прикреплять файлы к сообщениям
Вы не можете скачивать файлы