Банда в мини - юбках / Mini - Skirt Gang / Feng kuang da ben zei (Луи Кэй / Lui Kei) [1974, Гонконг, комедия, DVDRip] VO (Виктор Береговых)

Ответить на тему
 
Автор Сообщение

user ®

Стаж: 11 лет

Сообщений: 15151

Пост Пост: #1 от 14-Мар-2014 22:30

[Цитировать]

Банда в мини - юбках / Mini - Skirt Gang / Feng kuang da ben zei
Страна: Гонконг
Жанр: комедия
Год выпуска: 1974
Продолжительность: 01:31:00
Перевод: Одноголосый закадровый (Виктор Береговых)
Cубтитры: нет
Режиссер: Луи Кэй / Lui Kei
В ролях: Бирт Тов, Чен Пин, Нэнси Лён, Ли Фун Лан, Чань Мэй Хуа, То Сиу Мин
Описание: Комедия о четырех девушках - карманницах, возглавляемых очаровательной блондинкой.Позже к их банде присоединяются два молодых парня, работающих в той же области, мальчик,специализирующийся на ограблении квартир и наивная девушка по имени Цзяо Цзяо, которую наши герои спасли от сутенеров.А там где есть преступления, там есть и полиция...(В.Береговых)
Сэмпл: http://www.sendspace.com/file/55f6t2
Качество видео: DVDRip
Формат видео: AVI
Видео: XviD, 720x320 (2.25:1), 23.976 fps, 1953 kbps avg, 0.353 bit/pixel
Аудио: AC3, 48.0 KHz, 192 Kbps, 2 channels

MediaInfo

General
Complete name : C:\Банда в мини - юбках\Банда в мини - юбках.avi
Format : AVI
Format/Info : Audio Video Interleave
File size : 1.37 GiB
Duration : 1h 31mn
Overall bit rate : 2 151 Kbps
Writing application : VirtualDubMod 1.5.4.1 (build 2178/release)
Writing library : VirtualDubMod build 2178/release
Video
ID : 0
Format : MPEG-4 Visual
Format profile : Simple@L3
Format settings, BVOP : No
Format settings, QPel : No
Format settings, GMC : No warppoints
Format settings, Matrix : Custom
Codec ID : XVID
Codec ID/Hint : XviD
Duration : 1h 31mn
Bit rate : 1 953 Kbps
Width : 720 pixels
Height : 320 pixels
Display aspect ratio : 2.25:1
Frame rate : 23.976 fps
Resolution : 24 bits
Colorimetry : 4:2:0
Scan type : Progressive
Bits/(Pixel*Frame) : 0.353
Stream size : 1.24 GiB (91%)
Writing library : XviD 1.0.1 (UTC 2004-06-05)
Audio
ID : 1
Format : AC-3
Format/Info : Audio Coding 3
Codec ID : 2000
Duration : 1h 31mn
Bit rate mode : Constant
Bit rate : 192 Kbps
Channel(s) : 2 channels
Channel positions : L R
Sampling rate : 48.0 KHz
Stream size : 125 MiB (9%)
Alignment : Split accross interleaves
Interleave, duration : 96 ms (2.30 video frames)
Interleave, preload duration : 96 ms
Language : Russian

Скриншот c названием фильма

Скриншоты

Скачать

Скачать торрент! Банда в мини - юбках / Mini - Skirt Gang / Feng kuang da ben zei (Луи Кэй / Lui Kei) [1974, Гонконг, комедия, DVDRip] VO (Виктор Береговых)

Как скачивать? · Что такое торрент? · Рейтинг и ограничения

Сайт не распространяет и не хранит электронные версии произведений, а лишь предоставляет доступ к создаваемому пользователями каталогу ссылок на торрент-файлы, которые содержат только списки хеш-сумм

[Профиль] [ЛС]
Показать сообщения:    
Ответить на тему

Текущее время: Сегодня 11:30

Часовой пояс: GMT + 4



Вы не можете начинать темы
Вы не можете отвечать на сообщения
Вы не можете редактировать свои сообщения
Вы не можете удалять свои сообщения
Вы не можете голосовать в опросах
Вы не можете прикреплять файлы к сообщениям
Вы не можете скачивать файлы