Босс / Дон / The Don (Фарукх Сиддики / Farogh Siddique) [1995, Индия, боевик, мелодрама, комедия, DVDRip] VO

Ответить на тему
 
Автор Сообщение

user ®

Стаж: 12 лет

Сообщений: 15092

Пост Пост: #1 от 14-Мар-2014 01:40

[Цитировать]

Босс / Дон / The Don
-Страна: Индия
Жанр: Драма, мелодрама
Год выпуска: 1995
Продолжительность: 02:39:56-Перевод: Одноголосый закадровый
Cубтитры: Нет-Режиссер: Фарукх Сиддики / Farogh Siddique-В ролях:Митхун Чакраборти, Сонали Бендре, Джугал Хансрадж, Прем Чопра, Садашив Амрапуркар, Раза Мурад, Гога Капур, Гудди Марути-Описание: Виджай живет со своей матерью, посещает колледж, и влюблён в красивицу Аниту.Надеж, сын крупного влиятельного человека Буджонга считает Аниту своей. Виджай вмешивается в их отношения, тем самым вызывает гнев Надеша.После драки с Виджаем, преступник отец Надеша нанимает убийцу по имени Jagga чтобы избавиться от Виджая.Но Виджай, хотя и ранен, выживает.Виджай и его мать имеют неизвестного покровителя, известного как "Босс", и никто не знает, почему Босс решил защитить Виджая и его мать.-- --Качество видео: DVDRip
Исходник: DVD9 R1
Формат видео: AVI-Видео: 640x336 (1.90:1), 23.976 fps, XviD build 50 ~1169 kbps avg, 0.23 bit/pixel
Аудио: 48 kHz, MPEG Layer 3, 2 ch, ~128.00 kbps--Риппер, синхронизация звука: soso4eg--- -
-

Скриншоты


-

MI

Общее
Полное имя : D:\[Релизы]\Boss.1995.DVDRip.XviD-soso4eg.avi
Формат : AVI
Формат/Информация : Audio Video Interleave
Размер файла : 1,46 Гбайт
Продолжительность : 2 ч. 39 м.
Общий поток : 1307 Кбит/сек
Программа кодирования : VirtualDubMod 1.5.10.3 | www.virtualdub-fr.org || (build 2550/release)
Видео
Идентификатор : 0
Формат : MPEG-4 Visual
Профиль формата : Advanced Simple@L5
Параметр BVOP формата : 2
Параметр QPel формата : Нет
Параметр GMC формата : Без точки перехода
Параметр матрицы формата : Default (MPEG)
Идентификатор кодека : XVID
Идентификатор кодека/Подсказка : XviD
Продолжительность : 2 ч. 39 м.
Битрейт : 1170 Кбит/сек
Ширина : 640 пикселей
Высота : 336 пикселей
Соотношение сторон : 1,905
Частота кадров : 23,976 кадра/сек
Цветовое пространство : YUV
Субдискретизация насыщенности : 4:2:0
Битовая глубина : 8 бит
Тип развёртки : Прогрессивная
Метод сжатия : С потерями
Бит/(Пиксели*Кадры) : 0.227
Размер потока : 1,31 Гбайт (89%)
Библиотека кодирования : XviD 1.2.1 (UTC 2008-12-04)
Аудио
Идентификатор : 1
Формат : MPEG Audio
Версия формата : Version 1
Профиль формата : Layer 3
Режим : Joint stereo
Расширение режима : MS Stereo
Идентификатор кодека : 55
Идентификатор кодека/Подсказка : MP3
Продолжительность : 2 ч. 39 м.
Вид битрейта : Постоянный
Битрейт : 128 Кбит/сек
Каналы : 2 канала
Частота : 48,0 КГц
Метод сжатия : С потерями
Размер потока : 146 Мбайт (10%)
Выравнивание : Соединение по промежуткам
Продолжительность промежутка : 42 мс. (1,00 видеокадр)
Время предзагрузки промежутка : 504 мс.

-
-
Скачать

Скачать торрент! Босс / Дон / The Don (Фарукх Сиддики / Farogh Siddique) [1995, Индия, боевик, мелодрама, комедия, DVDRip] VO

Как скачивать? · Что такое торрент? · Рейтинг и ограничения

Сайт не распространяет и не хранит электронные версии произведений, а лишь предоставляет доступ к создаваемому пользователями каталогу ссылок на торрент-файлы, которые содержат только списки хеш-сумм

[Профиль] [ЛС]
Показать сообщения:    
Ответить на тему

Текущее время: Сегодня 11:21

Часовой пояс: GMT + 4



Вы не можете начинать темы
Вы не можете отвечать на сообщения
Вы не можете редактировать свои сообщения
Вы не можете удалять свои сообщения
Вы не можете голосовать в опросах
Вы не можете прикреплять файлы к сообщениям
Вы не можете скачивать файлы