Эксперимент Ганцфельда / The Ganzfeld Haunting (Майкл Обловитц / Michael Oblowitz) [2014, США, ужасы, триллер, WEB-DLRip] VO (Xixidok) + Original Eng

Ответить на тему
 
Автор Сообщение

user ®

Стаж: 7 лет 7 месяцев

Сообщений: 20008

Пост Пост: #1 от 14-Мар-2014 01:40

[Цитировать]

Эксперимент Ганцфельда / The Ganzfeld Haunting
Страна: США
Жанр: ужасы, триллер
Год выпуска: 2014
Продолжительность: 01:26:05
Перевод: Одноголосый закадровый XixiDok по переводу gordana75
Cубтитры: нет
Оригинальная аудиодорожка: английский
Режиссер: Майкл Обловитц / Michael Oblowitz
В ролях: Дианна Камачо, Тейлор Коул, Райан Доноху, Кимберли Эстрада, Микайла Фигуроа, Тоби Хемингуэй, Коуди Хауэлл, Холт МакКэллани, Доминик Пёрселл, Рико Симонини
Описание: Четверо ребят-студентов уезжают в загородный заброшенный особняк, чтобы провести в нем выходные и поставить опасный эксперимент Ганцфельда, который, по сути, является тестом на выявление паранормальных способностей... Поначалу поездка выглядит как увлекательное приключение. Ребята привозят с собой в большой двухэтажный дом огромное количество видео и звукозаписывающей аппаратуры, чтобы отследить каждое свое действие и все происходящие во время эксперимента события. Также они запасаются наркотиками и алкоголем, чтобы как следует «подогреть» свой разум во время опыта. Но в самый разгар опыта в доме начинают происходить странные вещи… Со временем герои понимают, что они в этом доме явно не одни, и здесь их ждет нечто ужасное. Удастся ли молодым психологам разобраться в происходящем и вырваться из страшного особняка до того, как в нем произойдут жуткие события, которые уже невозможно будет исправить?

Качество видео: WEB-DLRip
Формат видео: AVI
Видео: Xvid 720x304 23.976fps 1808kbps
Аудио 1: MP3 44100Hz stereo 192kbps ---> [Russian]
Аудио 2: Dolby AC3 48000Hz stereo 256kbps ---> [English]

MediaInfo

General
Complete name : E:\Films\New\The.Ganzfeld.Haunting.2014.WEB-DLRip.avi
Format : AVI
Format/Info : Audio Video Interleave
File size : 1.37 GiB
Duration : 1h 26mn
Overall bit rate : 2 271 Kbps
Writing application : VirtualDubMod 1.5.10.3 | www.virtualdub-fr.org || (build 2550/release)
Writing library : VirtualDubMod build 2550/release
Video
ID : 0
Format : MPEG-4 Visual
Format profile : Advanced Simple@L5
Format settings, BVOP : 1
Format settings, QPel : No
Format settings, GMC : No warppoints
Format settings, Matrix : Custom
Codec ID : XVID
Codec ID/Hint : XviD
Duration : 1h 26mn
Bit rate : 1 808 Kbps
Width : 720 pixels
Height : 304 pixels
Display aspect ratio : 2.35:1
Frame rate : 23.976 fps
Color space : YUV
Chroma subsampling : 4:2:0
Bit depth : 8 bits
Scan type : Progressive
Compression mode : Lossy
Bits/(Pixel*Frame) : 0.345
Stream size : 1.09 GiB (80%)
Writing library : XviD 73
Audio #1
ID : 1
Format : MPEG Audio
Format version : Version 1
Format profile : Layer 3
Codec ID : 55
Codec ID/Hint : MP3
Duration : 1h 26mn
Bit rate mode : Constant
Bit rate : 192 Kbps
Channel(s) : 2 channels
Sampling rate : 44.1 KHz
Compression mode : Lossy
Delay relative to video : 13ms
Stream size : 118 MiB (8%)
Alignment : Split accross interleaves
Interleave, duration : 42 ms (1.00 video frame)
Interleave, preload duration : 500 ms
Audio #2
ID : 2
Format : AC-3
Format/Info : Audio Coding 3
Mode extension : CM (complete main)
Format settings, Endianness : Big
Codec ID : 2000
Duration : 1h 26mn
Bit rate mode : Constant
Bit rate : 256 Kbps
Channel(s) : 2 channels
Channel positions : Front: L R
Sampling rate : 48.0 KHz
Bit depth : 16 bits
Compression mode : Lossy
Stream size : 158 MiB (11%)
Alignment : Split accross interleaves
Interleave, duration : 42 ms (1.00 video frame)
Interleave, preload duration : 500 ms

Скриншоты


Скачать

Скачать торрент!

Как скачивать? · Что такое торрент? · Рейтинг и ограничения

Сайт не распространяет и не хранит электронные версии произведений, а лишь предоставляет доступ к создаваемому пользователями каталогу ссылок на торрент-файлы, которые содержат только списки хеш-сумм

[Профиль] [ЛС]
Показать сообщения:    
Ответить на тему

Текущее время: Сегодня 08:11

Часовой пояс: GMT + 4



Вы не можете начинать темы
Вы не можете отвечать на сообщения
Вы не можете редактировать свои сообщения
Вы не можете удалять свои сообщения
Вы не можете голосовать в опросах
Вы не можете прикреплять файлы к сообщениям
Вы не можете скачивать файлы