Принцесса Лебедь 5: Королевская сказка / The Swan Princess: A Royal Family Tale (Ричард Рич / Richard Rich) [2013, мультфильм, фэнтези, DVDRip] Mvo + Eng

Ответить на тему
 
Автор Сообщение

user ®

Стаж: 11 лет

Сообщений: 15145

Пост Пост: #1 от 13-Мар-2014 19:20

[Цитировать]

Принцесса Лебедь 5: Королевская сказка / The Swan Princess: A Royal Family Tale- Страна: США
Жанр: мультфильм, фэнтези
Год выпуска: 2013
Продолжительность: 01:19:58
Перевод: Профессиональный (многоголосый закадровый)
Субтитры: Нет-Режиссер: Ричард Рич / Richard Rich-Описание: В сказочном королевстве принцесса Одетт, принц Дерек и их преданные лесные друзья собираются встречать рождество. Однако после того, как королевская семья удочерила маленькую прелестную девочку, неизвестный злодей похищает и уводит в лес девочку. Одетт и Дерек отправляются на её поиски. Но пока королевство готовится к празднику, хитрый и коварный колдун Ротбарт планирует уничтожить королевство.-Рейтинг:

MPAA: - Рекомендуется присутствие родителей-Мировая премьера: 25 февраля 2014
Релиз на DVD: 25 февраля 2014, «Columbia/Sony»--Семпл-Качество: DVDRip
Формат: AVI
Видео: 656x368 (1.78:1), 25 fps, XviD build 65 ~1163 kbps avg, 0.19 bit/pixel
Аудио: 48 kHz, MPEG Layer 3, 2 ch, ~128.00 kbps avg
Субтитры: Отсутствуют-

MI

Format : AVIFormat/Info : Audio Video InterleaveFile size : 744 MiBDuration : 1h 19mnOverall bit rate : 1 302 KbpsWriting application : VirtualDubMod 1.5.10.3 | www.virtualdub-fr.org || (build 2550/release)Writing library : VirtualDubMod build 2550/release
VideoID : 0Format : MPEG-4 VisualFormat profile : Advanced Simple@L5Format settings, BVOP : 2Format settings, QPel : NoFormat settings, GMC : No warppointsFormat settings, Matrix : CustomCodec ID : XVIDCodec ID/Hint : XviDDuration : 1h 19mnBit rate : 1 164 KbpsWidth : 656 pixelsHeight : 368 pixelsDisplay aspect ratio : 16:9Frame rate : 25.000 fpsColor space : YUVChroma subsampling : 4:2:0Bit depth : 8 bitsScan type : ProgressiveCompression mode : LossyBits/(Pixel*Frame) : 0.193Stream size : 666 MiB (89%)Writing library : XviD 65
AudioID : 1Format : MPEG AudioFormat version : Version 1Format profile : Layer 3Codec ID : 55Codec ID/Hint : MP3Duration : 1h 19mnBit rate mode : ConstantBit rate : 128 KbpsChannel count : 2 channelsSampling rate : 48.0 KHzCompression mode : LossyStream size : 73.2 MiB (10%)Alignment : Aligned on interleavesInterleave, duration : 40 ms (1.00 video frame)Interleave, preload duration : 504 msWriting library : LAME3.99rEncoding settings : -m s -V 4 -q 2 -lowpass 17 -b 128
Скачать

Скачать торрент! Принцесса Лебедь 5: Королевская сказка / The Swan Princess: A Royal Family Tale (Ричард Рич / Richard Rich) [2013, мультфильм, фэнтези, DVDRip] Mvo + Eng

Как скачивать? · Что такое торрент? · Рейтинг и ограничения

Сайт не распространяет и не хранит электронные версии произведений, а лишь предоставляет доступ к создаваемому пользователями каталогу ссылок на торрент-файлы, которые содержат только списки хеш-сумм

[Профиль] [ЛС]
Показать сообщения:    
Ответить на тему

Текущее время: Сегодня 19:36

Часовой пояс: GMT + 4



Вы не можете начинать темы
Вы не можете отвечать на сообщения
Вы не можете редактировать свои сообщения
Вы не можете удалять свои сообщения
Вы не можете голосовать в опросах
Вы не можете прикреплять файлы к сообщениям
Вы не можете скачивать файлы