Молодые годы / Kanni Paruvathile (Б.В. Балагуру / B. V. Balaguru) [1979, Индия, Мелодрама, DVDRip] VO (Nastia) + Original + Sub Rus

Ответить на тему
 
Автор Сообщение

user ®

Стаж: 12 лет

Сообщений: 15092

Пост Пост: #1 от 13-Мар-2014 19:20

[Цитировать]

Молодые годы / Kanni Paruvathile--
Страна: Индия
Жанр: Мелодрама
Год выпуска: 1979
Продолжительность: 02:13:52--Перевод: Одноголосый закадровый (Nastia)
Перевод субтитров: larisa_k
Cубтитры: Русские (на песни)
Оригинальная аудиодорожка: тамильский--Режиссер: Б.В. Балагуру / B. V. Balaguru--В ролях: Раджеш, Вадиввукарсай, К.Бхагьярадж, Г.Синивасан, Мутхубхаратхи--Описание: Это история сложного любовного треугольника. Семейная жизнь молодых супругов не складывается из-за болезни мужа. Он предлагает ей оставить его. Но молодая женщина очень любит своего мужа и уходить от него не хочет. Вскоре в их жизнь входит вернувшийся в деревню после окончания учебы друг детства молодого мужа. После этого в жизни всех троих происходят роковые перемены...--Доп. информация: Фильм имел большой кассовый успех. Сценарий и диалоги к нему написал Кришнасвами Бхагьярадж, сыгравший роль коварного друга. О нем стоит сказать отдельно. Это прекрасный характерный актер, продюсер, талантливый режиссер, композитор, сценарист и писатель. Его дочь Саранья и сын Шантхну тоже снимаются в кино. Первая жена Правина, уже покойная, была актрисой, вторая жена, Пурнима Джаярам - снимается в фильмах на языке малаялам.
Бхагьярадж написал сценарии к таким фильмам как Человек с каменным сердцем /Pathar Ke Insan (1990), Одна ошибка / Ek Hi Bhool (1981), Тик-так / Tik Tik Tik (1981), Те семь дней / Woh 7 Din (1983), Красная роза / Sigappu Rojakkal (1978), Раджа Бабу / Raja Babu (1994), Сын/ Beta (1992) и др. Был режиссером более 30 фильмов на тамили, телугу, хинди. К примеру таких как Потерять себя / Mr. Bechara (1996), Расплата за преступление / Aakhree Raasta (1986). Много его фильмов в 80-х были переделаны на хинди. Именно Бхагьярадж открыл для кино Рати Агнихотри. Он автор книг Vaanga Cinemavai Pattri Pesalam, Neenga Nenaicha Saadikkalaam, семи романов. Ставит телешоу, снимает сериалы, редактор собственного еженедельного журнала. Писал музыку к фильмам, в основном тамильским. Придя из театральной среды Бхагьярадж сыграл много самых разных ролей, но большое значение придает сценарию, как основному залогу успеха всего фильма. В большинстве его фильмов отсутствует главный злодей, в жизни его героев существует проблема злодейства, что и отличает его фильмы. Многие его диалоги в Тамил Наду стали поговорками. У нас Бхагьярадж известен по фильму Ложная Клятва / Munthanai Mudichu (1984), где он не только сыграл главную роль, но и был режиссером. (larisa_k)--Большое спасибо:
larisa_k, за перевод субтитров и за предоставленные материалы
Nastia, за озвучку фильма
Особая благодарность Хатуба, за неоценимую помощь в переводе названия фильма.
Cведение звука: pca1962--Релиз-группа:
Сэмпл: http://multi-up.com/958285
Качество видео: DVDRip
Формат видео: AVI
Видео: XviD, 512x384, 29.97 fps, 1324 kbps
Аудио: MP3, 48 kHz, 2.0 (stereo), 128 kbps (русский)
Аудио 2: MP3, 48 kHz, 2.0 (stereo), 96 kbps (тамильский)
Формат субтитров: softsub (SRT)-
-

MediaInfo

=== Общие ===
Полное имя : Molodye.gody.1979.DVDRip.XviD.pca1962.avi
Формат : AVI
Описание формата : Audio Video Interleave
Размер файла : 1.46 Гб
Длительность : 2ч 13мин
Общий битрейт : 1 566 кбит/сек
Програмное обеспечение : VirtualDubModRus 1.5.10.2 (build 2542/release)
Кодирующая библиотека : VirtualDubMod build 2542/release
=== Видео ===
ID (Идентификатор) : 0
Формат : MPEG-4 Visual
Профиль формата : Advanced Simple@L5
Параметр 'BVOP' : 2
Параметр 'QPel' : Да
Параметр 'GMC' : No warppoints
Параметр 'Matrix' : Default (MPEG)
Идентификатор кодека : XVID
Подпись кодека : XviD
Длительность : 2ч 13мин
Битрейт : 1324 кбит/сек
Ширина кадра : 512 пикселей
Высота кадра : 384 пикселей
Соотношение сторон : 4:3
Частота кадров : 29.970 кадров/сек
Цветовое пространство : YUV
Субдискретизация насыщенности : 4:2:0
Глубина (разрядность) : 8 bits
Тип развертки : Прогрессивная
Режим сжатия : С потерями
Бит/(пиксель*кадр) : 0.225
Размер потока : 1.24 Гб (85%)
Кодирующая библиотека : XviD 1.1.0 Beta2 (UTC 2005-04-04)
=== Аудио 1 ===
ID (Идентификатор) : 1
Формат : MPEG Audio
Версия формата : Version 1
Профиль формата : Layer 3
Режим : Joint stereo
Mode extension : MS Stereo
Идентификатор кодека : 55
Подпись кодека : MP3
Длительность : 2ч 13мин
Тип битрейта : Постоянный
Битрейт : 128 кбит/сек
Канал(ы) : 2 каналов
Частота дискретизации : 48.0 кГц
Режим сжатия : С потерями
Размер потока : 123 Мб (8%)
Расположение потока : Aligned on interleaves
Период чередования : 33 мс (1.00 video frame)
Предварительная загрузка : 504 мс
Кодирующая библиотека : LAME3.98.2
=== Аудио 2 ===
ID (Идентификатор) : 2
Формат : MPEG Audio
Версия формата : Version 1
Профиль формата : Layer 3
Режим : Joint stereo
Mode extension : MS Stereo
Идентификатор кодека : 55
Подпись кодека : MP3
Длительность : 2ч 13мин
Тип битрейта : Постоянный
Битрейт : 96.0 кбит/сек
Канал(ы) : 2 каналов
Частота дискретизации : 48.0 кГц
Режим сжатия : С потерями
Размер потока : 91.9 Мб (6%)
Расположение потока : Aligned on interleaves
Период чередования : 33 мс (1.00 video frame)
Предварительная загрузка : 504 мс
Кодирующая библиотека : LAME3.98

-
-

Скриншот c названием фильма

Скриншоты

Скачать

Скачать торрент! Молодые годы / Kanni Paruvathile (Б.В. Балагуру / B. V. Balaguru) [1979, Индия, Мелодрама, DVDRip] VO (Nastia) + Original + Sub Rus

Как скачивать? · Что такое торрент? · Рейтинг и ограничения

Сайт не распространяет и не хранит электронные версии произведений, а лишь предоставляет доступ к создаваемому пользователями каталогу ссылок на торрент-файлы, которые содержат только списки хеш-сумм

[Профиль] [ЛС]
Показать сообщения:    
Ответить на тему

Текущее время: Сегодня 06:49

Часовой пояс: GMT + 4



Вы не можете начинать темы
Вы не можете отвечать на сообщения
Вы не можете редактировать свои сообщения
Вы не можете удалять свои сообщения
Вы не можете голосовать в опросах
Вы не можете прикреплять файлы к сообщениям
Вы не можете скачивать файлы