Сингх сахаб Великий / Великий Сингх Сахаб / Singh Saab the Great (Анил Шарма / Anil Sharma) [2013, Индия, боевик, драма, DVDRip] Sub Rus + Original

Ответить на тему
 
Автор Сообщение

user ®

Стаж: 12 лет

Сообщений: 15092

Пост Пост: #1 от 13-Мар-2014 19:20

[Цитировать]

Сингх сахаб Великий / Великий Сингх Сахаб / Singh Saab the Great
-Страна: Индия
Жанр: Боевик, драма
Год выпуска: 2013
Продолжительность: 02:25:25--Язык: Хинди
Перевод: Субтитры
Cубтитры: Русские
Перевод и редакция: Нари Асвена--Режиссер: Анил Шарма / Anil Sharma-В ролях: Санни Деол, Пракаш Радж, Амрита Рао, Урваши Рутела, Джонни Левер, Дхармендра с Бобби Деолом (участие в клипе)--Описание: Это история о простом честном человеке, который гордится своей честностью. Он любит свою семью и свою работу, уверен в ценности правды и верит в её триумф. Вступая в борьбу с коррупцией и несправедливостью, он теряет самое дорогое - но находит в себе силы не ожесточиться и просто мстить, а продолжает пытаться изменить мир. "В мире много страдания - но не из-за насилия плохих людей, а из-за молчания хороших" (описание от Anakta)-- | Кинопоиск--Качество видео: DVDRip
Исходник: DVD9 R1
Формат видео: AVI-Видео: 720x304 (2.37:1), 23.976 fps, XviD build 50 ~1236 kbps avg, 0.23 bit/pixel
Аудио: 48 kHz, AC3 Dolby Digital, 2/0 (L,R) ch, ~192 kbps
Формат субтитров: hardsub (неотключаемые, вшитые в картинку)--Сэмпл / Sample--Релиз:
Перевод, редакция: Нари Асвена (спасибо!)
Риппер: soso4eg-- -
-

Пример субтитров

00:01:48,773 --> 00:01:50,343
С чего мне начать рассказ?
6
00:01:52,310 --> 00:01:53,414
С его детства...
7
00:01:55,313 --> 00:01:57,418
в котором, как и любому другому ребенку,
8
00:01:57,482 --> 00:02:00,429
ему сказали, что честность -
это величайшая сила.
9
00:02:03,255 --> 00:02:04,233
Или от тюрьмы?
10
00:02:05,757 --> 00:02:07,668
Или от Бхадура?
11
00:02:10,295 --> 00:02:13,708
Или от Чиронджи, маленькой деревушки
в восточном Уттар-Прадеше,
12
00:02:14,699 --> 00:02:17,202
где Сингх сахаб начал свою жизнь,
13
00:02:17,269 --> 00:02:18,714
пойдя правильным путем.
14
00:02:58,610 --> 00:03:00,487
Движение начнется сейчас.
15
00:03:01,513 --> 00:03:05,393
Община Сингхов здесь,
но где же пресса?
16
00:03:09,087 --> 00:03:11,863
Забудьте о прессе,
вот идет справедливость.
17
00:03:22,300 --> 00:03:24,507
Ну что, начинайте молиться.
18
00:03:24,803 --> 00:03:26,373
Сингх сахаб великий здесь.
19
00:03:41,319 --> 00:03:44,789
Кто скажет, что нельзя
проделать дыру в небе?
20
00:03:45,857 --> 00:03:49,236
Кто скажет, что нельзя
проделать дыру в небе?
21
00:03:50,261 --> 00:03:53,105
Попробуйте бросить камень
изо всех сил.
22
00:03:53,598 --> 00:03:54,303
Вместе с друзьями,
23
00:03:54,566 --> 00:03:55,772
объедините свои силы.
24
00:03:56,668 --> 00:03:59,842
Джафла Сингх! Мои люди волнуются,
25
00:03:59,904 --> 00:04:01,508
Что прессы здесь нет.

-

Скриншот с названием:


-

Скриншоты:


-

MI

Общее
Полное имя : C:\INDIYA\Singh.Sahab.Velikiy.2013.DVDRip.XviD.BwTorrents.avi
Формат : AVI
Формат/Информация : Audio Video Interleave
Размер файла : 1,46 Гбайт
Продолжительность : 2 ч. 25 м.
Общий поток : 1438 Кбит/сек
Программа кодирования : VirtualDubMod 1.5.10.3 | www.virtualdub-fr.org || (build 2550/release)
Видео
Идентификатор : 0
Формат : MPEG-4 Visual
Профиль формата : Advanced Simple@L5
Параметр BVOP формата : 1
Параметр QPel формата : Нет
Параметр GMC формата : Без точки перехода
Параметр матрицы формата : Default (H.263)
Идентификатор кодека : XVID
Идентификатор кодека/Подсказка : XviD
Продолжительность : 2 ч. 25 м.
Битрейт : 1236 Кбит/сек
Ширина : 720 пикселей
Высота : 304 пикселя
Соотношение сторон : 2,35:1
Частота кадров : 23,976 кадра/сек
Цветовое пространство : YUV
Субдискретизация насыщенности : 4:2:0
Битовая глубина : 8 бит
Тип развёртки : Прогрессивная
Метод сжатия : С потерями
Бит/(Пиксели*Кадры) : 0.236
Размер потока : 1,26 Гбайт (86%)
Библиотека кодирования : XviD 1.2.1 (UTC 2008-12-04)
Аудио
Идентификатор : 1
Формат : AC-3
Формат/Информация : Audio Coding 3
Расширение режима : CM (complete main)
Параметр Endianness формата : Big
Идентификатор кодека : 2000
Продолжительность : 2 ч. 25 м.
Вид битрейта : Постоянный
Битрейт : 192 Кбит/сек
Каналы : 2 канала
Расположение каналов : Front: L R
Частота : 48,0 КГц
Битовая глубина : 16 бит
Метод сжатия : С потерями
Размер потока : 200 Мбайт (13%)
Выравнивание : Разделение по промежуткам
Продолжительность промежутка : 42 мс. (1,00 видеокадр)
Время предзагрузки промежутка : 500 мс.
Скачать

Скачать торрент! Сингх сахаб Великий / Великий Сингх Сахаб / Singh Saab the Great (Анил Шарма / Anil Sharma) [2013, Индия, боевик, драма, DVDRip] Sub Rus + Original

Как скачивать? · Что такое торрент? · Рейтинг и ограничения

Сайт не распространяет и не хранит электронные версии произведений, а лишь предоставляет доступ к создаваемому пользователями каталогу ссылок на торрент-файлы, которые содержат только списки хеш-сумм

[Профиль] [ЛС]
Показать сообщения:    
Ответить на тему

Текущее время: Сегодня 05:36

Часовой пояс: GMT + 4



Вы не можете начинать темы
Вы не можете отвечать на сообщения
Вы не можете редактировать свои сообщения
Вы не можете удалять свои сообщения
Вы не можете голосовать в опросах
Вы не можете прикреплять файлы к сообщениям
Вы не можете скачивать файлы