Ранчо "Халява" / Buck Wild (Тайлер Глодт / Tyler Glodt ) [2014, США, ужасы, комедия, WEB-DL 720p] MVO + Original (Eng) + Sub (eng)

Ответить на тему
 
Автор Сообщение

user ®

Стаж: 7 лет 7 месяцев

Сообщений: 20008

Пост Пост: #1 от 13-Мар-2014 01:15

[Цитировать]

Ранчо "Халява" : Buck Wild«Three friends, one cousin, and a hunting vacation to die for» Страна: США
Год выпуска: 2014
Жанр: ужасы, комедия
Продолжительность: 01:35:28
Перевод: Любительский (Многоголосый закадровый) - ViruseProject
русские субтитры: нет-Режиссёр: Тайлер Глодт : Tyler Glodt
В главных ролях: Мэттью Альбрехт, Джаррод Пистилли, Дрю Локвуд, Исаак Харрисон, Марк Форд, Тайлер Глодт, Мэг Чионни, Джо Стивенс, Филлип Альбрехт, Уит Альбрехт-Закадровое озвучание: Марина Видякина, Елена Емельянова, Алекс Викке, Алексей Кизуб, Дмитрий Кравченко, Дмитрий Иванов, Александр Федоров, Владислав Данилов
Перевод: МЕГАПЫХАРЬ и Ох!СТудия
Редакция перевода, монтаж: Виталий Емельянов-Описание: Крейг Томпсон вытягивает своих друзей Тома, Лэнса и кузена Джерри на охоту на ранчо, которое находится у чёрта на куличках. Планируя не только отдохнуть по человечески, но и раскрыть своим друзьям, что он хочет жениться на девушке с которой живет уже 6 лет. В итоге выясняется, что девушка Крейга еще та «гулящая особа», так еще и постоянно изменяла ему с лучшим другом — Лэнсом. И пока у них идет своя комедийная драма, вокруг быстрым ходом распространяется вирус «Чупакабра», который превращает всех жителей ближайшей деревни и соседних ранчо в нежить/зомби.- -Качество: WEB-DL 720p
Формат: MKV
Видео кодек: AVC
Аудио кодек: АС3 5.0
Видео: 1280x536, 23.976 fps, ~3 959 kbps avg, 0.241 bit/pixel
Аудио #1: [RUS] 48 kHz, AC3 Dolby Digital, 3/2 (L,C,R,l,r), ~384 kbps
Аудио #2: [ENG] 48 kHz, AC3 Dolby Digital, 3/2 (L,C,R,l,r), ~384 kbps
субтитры: английские
навигация по главам: 16 глав

скриншоты


MediaInfo

Общее
Уникальный идентификатор : 253380273173650830424816983114090181780 (0xBE9F43FA9319FAC199D28BDF29367494)
Полное имя : D:\Фильмы\Ранчо Халява\Buck Wild.2014.WEB-DL 720p.mkv
Формат : Matroska
Версия формата : Version 4 / Version 2
Размер файла : 3,21 Гбайт
Продолжительность : 1 ч. 35 м.
Общий поток : 4815 Кбит/сек
Дата кодирования : UTC 2014-03-11 19:15:33
Программа кодирования : mkvmerge v6.8.0 ('Theme for Great Cities') 32bit built on Mar 2 2014 21:27:07
Библиотека кодирования : libebml v1.3.0 + libmatroska v1.4.1
Видео
Идентификатор : 1
Формат : AVC
Формат/Информация : Advanced Video Codec
Профиль формата : Main@L3.1
Параметр CABAC формата : Нет
Параметр ReFrames формата : 2 кадра
Идентификатор кодека : V_MPEG4/ISO/AVC
Продолжительность : 1 ч. 35 м.
Битрейт : 3952 Кбит/сек
Ширина : 1280 пикселей
Высота : 536 пикселей
Соотношение сторон : 2,40:1
Режим частоты кадров : Постоянный
Частота кадров : 23,976 кадра/сек
Цветовое пространство : YUV
Субдискретизация насыщенности : 4:2:0
Битовая глубина : 8 бит
Тип развёртки : Прогрессивная
Бит/(Пиксели*Кадры) : 0.240
Размер потока : 2,64 Гбайт (82%)
Язык : English
Default : Да
Forced : Нет
Основные цвета : BT.709
Характеристики трансфера : BT.709
Коэффициенты матрицы : BT.709
Аудио #1
Идентификатор : 2
Формат : AC-3
Формат/Информация : Audio Coding 3
Расширение режима : CM (complete main)
Параметр Endianness формата : Big
Идентификатор кодека : A_AC3
Продолжительность : 1 ч. 35 м.
Вид битрейта : Постоянный
Битрейт : 384 Кбит/сек
Каналы : 5 каналов
Расположение каналов : Front: L C R, Side: L R
Частота : 48,0 КГц
Битовая глубина : 16 бит
Метод сжатия : С потерями
Размер потока : 262 Мбайт (8%)
Заголовок : MVO [ViruseProject]
Язык : Russian
Default : Да
Forced : Нет
Аудио #2
Идентификатор : 3
Формат : AC-3
Формат/Информация : Audio Coding 3
Расширение режима : CM (complete main)
Параметр Endianness формата : Big
Идентификатор кодека : A_AC3
Продолжительность : 1 ч. 35 м.
Вид битрейта : Постоянный
Битрейт : 384 Кбит/сек
Каналы : 5 каналов
Расположение каналов : Front: L C R, Side: L R
Частота : 48,0 КГц
Битовая глубина : 16 бит
Метод сжатия : С потерями
Размер потока : 262 Мбайт (8%)
Заголовок : ENG
Язык : English
Default : Нет
Forced : Нет
Текст
Идентификатор : 4
Формат : UTF-8
Идентификатор кодека : S_TEXT/UTF8
Идентификатор кодека/Информация : UTF-8 Plain Text
Заголовок : Eng Sub
Язык : English
Default : Нет
Forced : Нет
Меню
00:00:00.000 : en:1
00:03:34.000 : en:2
00:10:24.000 : en:3
00:16:11.000 : en:4
00:22:54.000 : en:5
00:28:11.000 : en:6
00:32:44.000 : en:7
00:41:00.000 : en:8
00:46:19.000 : en:9
00:51:17.000 : en:10
00:56:05.000 : en:11
01:03:29.000 : en:12
01:11:24.000 : en:13
01:16:19.000 : en:14
01:20:11.000 : en:15
01:27:31.000 : en:16
ВНИМАНИЕ! НЕНОРМАТИВНАЯ ЛЕКСИКА!!!
Скачать

Скачать торрент!

Как скачивать? · Что такое торрент? · Рейтинг и ограничения

Сайт не распространяет и не хранит электронные версии произведений, а лишь предоставляет доступ к создаваемому пользователями каталогу ссылок на торрент-файлы, которые содержат только списки хеш-сумм

[Профиль] [ЛС]
Показать сообщения:    
Ответить на тему

Текущее время: Сегодня 02:13

Часовой пояс: GMT + 4



Вы не можете начинать темы
Вы не можете отвечать на сообщения
Вы не можете редактировать свои сообщения
Вы не можете удалять свои сообщения
Вы не можете голосовать в опросах
Вы не можете прикреплять файлы к сообщениям
Вы не можете скачивать файлы