Антонина и Лев (Татьяна Ведяшкина) [2012, Семейная драма, короткий метр , SATRip] Sub (Eng)

Ответить на тему
 
Автор Сообщение

user ®

Стаж: 7 лет 7 месяцев

Сообщений: 20008

Пост Пост: #1 от 13-Мар-2014 01:15

[Цитировать]

Антонина и Лев
Жанр:Короткий метр (Семейная драма)
Год выпуска: 2012
Продолжительность: 0:26:16
Субтитры:английские (неотключаемые)
Режиссёр: Татьяна Ведяшкина
В ролях: Евгения Агенорова, Константин Желдин, Наталья Рожкова, Дарья Блинова, Татьяна Кузнецова
Описание: Принципиальный, книжный, сложный в повседневной жизни человек, Лев Иванович, трудно переживает собственную ненужность, старается не поддаваться бесцельности будней и заодно тиранит свою смиренную жену Антонину Андреевну, привычно сносящую все его едкие шутки, и настоящие обиды. Деду, носителю старомодных семейных представлений, не понравилось, как внучка пригласила его к себе на свадьбу, и он решил, что они с Антониной не пойдут. Но для бабушки нет ничего важнее этого события. Ей чужды и спесь деда, и его гордая принципиальность. В мягкости, гибкости характера бабушки ее сила. Однако, втайне приехав на праздник, она чувствует себя неуместной и нежданной. Дед же, при видимой твердости, оказывается наиболее ранимым. Он совершает важный для себя поступок: прощает обман и щадит чувства бабушки…
Доп. информация: Производство : ВГИК
Награды :
Диплом жюри Открытый Фестиваль студенческих и дебютных фильмов «Святая Анна», Москва (Россия), 2013
Сэмпл: http://multi-up.com/958353
Качество видео: SATRip
Формат видео: AVI
Видео: XviD , 704x384 (1.83:1) , 25 fps , 1931 kbps avg
Аудио: AC3 , 48 kHz , 192.00 kbps avg , 2/0 (L,R) ch

MediaInfo

General
Complete name Антонина и Лев 2012.avi
Format : AVI
Format/Info : Audio Video Interleave
File size : 401 MiB
Duration : 26mn 16s
Overall bit rate : 2 133 Kbps
Writing library : VirtualDub build 35390/release
Video
ID : 0
Format : MPEG-4 Visual
Format profile : Advanced Simple@L5
Format settings, BVOP : 1
Format settings, QPel : No
Format settings, GMC : No warppoints
Format settings, Matrix : Default (H.263)
Codec ID : XVID
Codec ID/Hint : XviD
Duration : 26mn 16s
Bit rate : 1 931 Kbps
Width : 704 pixels
Height : 384 pixels
Display aspect ratio : 1.85:1
Frame rate : 25.000 fps
Color space : YUV
Chroma subsampling : 4:2:0
Bit depth : 8 bits
Scan type : Progressive
Compression mode : Lossy
Bits/(Pixel*Frame) : 0.286
Stream size : 363 MiB (91%)
Writing library : XviD 64
Audio
ID : 1
Format : AC-3
Format/Info : Audio Coding 3
Mode extension : CM (complete main)
Format settings, Endianness : Big
Codec ID : 2000
Duration : 26mn 16s
Bit rate mode : Constant
Bit rate : 192 Kbps
Channel(s) : 2 channels
Channel positions : Front: L R
Sampling rate : 48.0 KHz
Bit depth : 16 bits
Compression mode : Lossy
Stream size : 36.1 MiB (9%)
Alignment : Aligned on interleaves
Interleave, duration : 40 ms (1.00 video frame)
Interleave, preload duration : 512 ms

Скриншот c названием фильма

Скриншоты

Скачать

Скачать торрент!

Как скачивать? · Что такое торрент? · Рейтинг и ограничения

Сайт не распространяет и не хранит электронные версии произведений, а лишь предоставляет доступ к создаваемому пользователями каталогу ссылок на торрент-файлы, которые содержат только списки хеш-сумм

[Профиль] [ЛС]
Показать сообщения:    
Ответить на тему

Текущее время: Сегодня 08:14

Часовой пояс: GMT + 4



Вы не можете начинать темы
Вы не можете отвечать на сообщения
Вы не можете редактировать свои сообщения
Вы не можете удалять свои сообщения
Вы не можете голосовать в опросах
Вы не можете прикреплять файлы к сообщениям
Вы не можете скачивать файлы