В погоне за миллионом / Гонки «Пушечное ядро» 2 / Cannonball Run 2 / Cannonball Run II (Хэл Нидэм / Hal Needham) [1984, США, Гонконг, боевик, драма, боевые искусства, DVDRip] MVO (РТР-Россия 1)

Ответить на тему
 
Автор Сообщение

user ®

Стаж: 11 лет

Сообщений: 15151

Пост Пост: #1 от 12-Мар-2014 10:30

[Цитировать]

В погоне за миллионом / Гонки «Пушечное ядро» 2 / Cannonball Run 2 / Cannonball Run II Страна: США, Гонконг
Жанр: боевик, комедия, боевые искусства
Год выпуска: 1984
Продолжительность: 01:44:43
Перевод: Профессиональный (многоголосый, закадровый) РТР-Россия 1
Cубтитры: нет
Режиссер: Хэл Нидэм / Hal Needham
В ролях: Джеки Чан, Берт Рейнолдс, Дом ДеЛуис, Дин Мартин, Сэмми Дэвис-мл., Джейми Фэрр, Марилу Хеннер, Телли Савалас, Ширли МакЛейн, Сьюзэн Энтон...
Описание: Арабский шейх устроил своему сыну выволочку за то, что тот проиграл автогонку "Кеннонбол". Чтобы доказать отцу, что природа на нем не отдыхает, молодой шейх решил купить следующую гонку и установил приз победителю в миллион долларов США. Теперь он уверен, - победа у него кармане, но обстоятельства обернулись иначе. На обещанный миллион в Америку слетаются многочисленные авантюристы, включая итальянскую мафию. Последние желают не только завладеть указанной суммой, но и увеличить ее, взяв в заложники богатого арабского наследника. По этому поводу все гонщики и им сочувствующие объединяются, чтобы спасти молодого шейха. Это им удается и гонка продолжается, но... шейх ее проигрывает. Что же делать? Папа будет ругаться... Делать нечего, придется купить еще одну гонку...
Качество видео: DVDRip
Формат видео: AVI
Видео: XviD, 720x400, 25 fps, 855 kbps
Аудио: Mp3, 48 kHz, 2 ch, 128 kbps [РТР-Россия 1]

MediaInfo

General
Format : AVI
Format/Info : Audio Video Interleave
File size : 744 MiB
Duration : 1h 44mn
Overall bit rate : 993 Kbps
Writing application : VirtualDubMod 1.5.10.3 (build 2550/release)
Writing library : VirtualDubMod build 2550/release
Video
ID : 0
Format : MPEG-4 Visual
Format profile : Advanced Simple@L5
Format settings, BVOP : 2
Format settings, QPel : No
Format settings, GMC : No warppoints
Format settings, Matrix : Default (MPEG)
Codec ID : XVID
Codec ID/Hint : XviD
Duration : 1h 44mn
Bit rate : 855 Kbps
Width : 720 pixels
Height : 400 pixels
Display aspect ratio : 16:9
Frame rate : 25.000 fps
Color space : YUV
Chroma subsampling : 4:2:0
Bit depth : 8 bits
Scan type : Progressive
Compression mode : Lossy
Bits/(Pixel*Frame) : 0.119
Stream size : 640 MiB (86%)
Writing library : XviD 1.2.1 (UTC 2008-12-04)
Audio
ID : 1
Format : MPEG Audio
Format version : Version 1
Format profile : Layer 3
Mode : Joint stereo
Codec ID : 55
Codec ID/Hint : MP3
Duration : 1h 44mn
Bit rate mode : Constant
Bit rate : 128 Kbps
Channel(s) : 2 channels
Sampling rate : 48.0 KHz
Compression mode : Lossy
Stream size : 95.9 MiB (13%)
Alignment : Aligned on interleaves
Interleave, duration : 40 ms (1.00 video frame)
Interleave, preload duration : 504 ms

Доп.информация

Премьерный показ на телеканале РТР в 05.03.1999 году.

Обложка

Скриншот c названием фильма

Скриншоты

Скачать

Скачать торрент! В погоне за миллионом / Гонки «Пушечное ядро» 2 / Cannonball Run 2 / Cannonball Run II (Хэл Нидэм / Hal Needham) [1984, США, Гонконг, боевик, драма, боевые искусства, DVDRip] MVO (РТР-Россия 1)

Как скачивать? · Что такое торрент? · Рейтинг и ограничения

Сайт не распространяет и не хранит электронные версии произведений, а лишь предоставляет доступ к создаваемому пользователями каталогу ссылок на торрент-файлы, которые содержат только списки хеш-сумм

[Профиль] [ЛС]
Показать сообщения:    
Ответить на тему

Текущее время: Сегодня 11:47

Часовой пояс: GMT + 4



Вы не можете начинать темы
Вы не можете отвечать на сообщения
Вы не можете редактировать свои сообщения
Вы не можете удалять свои сообщения
Вы не можете голосовать в опросах
Вы не можете прикреплять файлы к сообщениям
Вы не можете скачивать файлы