Перекрестный огонь / Bad Country (Крис Бринкер / Chris Brinker) [2014, США, триллер, драма, детектив, боевик, криминал, WEB-DL 1080p] MVO + Sub Eng + Original Eng

Ответить на тему
 
Автор Сообщение

user ®

Стаж: 7 лет 7 месяцев

Сообщений: 20008

Пост Пост: #1 от 12-Мар-2014 02:15

[Цитировать]

--Перекрестный огонь / Bad Country-- Страна: США
Студия: ANA Media, CB Productions, Mandalay Vision, Whiskey Bay, Wilmor Entertainment
Жанр: триллер, драма, детектив, боевик, криминал
Год выпуска: 2014
Продолжительность: 01:44:22-Перевод: Профессиональный (многоголосый закадровый)
Cубтитры: английские
Оригинальная аудиодорожка: английский-Режиссер: Крис Бринкер / Chris Brinker-В ролях: Мэтт Диллон (Jesse Weiland), Нил МакДонаф (Kiersey), Эми Смарт (Lynn Weiland), Уиллем Дефо (Bud Carter), Том Беренджер (Lutin), Билл Дьюк (Nokes), Дж.Д. Эвермор (Murphy - Captain of the Guards), Крис Маркетт (Fitch), Кевин Чэпмен (Morris), Кристофер Денэм (Tommy Weiland)
Описание: Фильм снят по реальным событиям. Расследование детектива Бада Картера приводит к аресту Джесси Вейланда, наемного убийцы из преступного синдиката. Вейланд осознает, что попав в тюрьму, он потеряет свою семью, и решает довериться Картеру, став его информатором.- -Тип релиза: WEB-DL 1080p
Контейнер: MKV
Видео: MPEG-4 AVC, 1916x1072, 23.976 fps, 4721 Kb/s
Аудио: русский, AC3, 6 ch, 384 Кбит/с, 48 KHz
Аудио 2: английский, AC3, 6 ch, 384 Кбит/с, 48 KHz
Формат субтитров: softsub (SSA/ASS)
-

MediaInfo

General
Unique ID : 209207473136228851217827037502670852368 (0x9D63E4CA3228DCEABA75743AE8435110)
Complete name : F:\BD torrent\Перекрестный огонь (2014) WEB-DL 1080p.mkv
Format : Matroska
Format version : Version 2
File size : 4.08 GiB
Duration : 1h 44mn
Overall bit rate : 5 601 Kbps
Encoded date : UTC 2014-03-10 15:11:55
Writing application : mkvmerge v5.8.0 ('No Sleep / Pillow') built on Sep 2 2012 15:37:04
Writing library : libebml v1.2.3 + libmatroska v1.3.0
Video
ID : 1
Format : AVC
Format/Info : Advanced Video Codec
Format profile : High@L4.0
Format settings, CABAC : Yes
Format settings, ReFrames : 4 frames
Codec ID : V_MPEG4/ISO/AVC
Duration : 1h 44mn
Bit rate : 4 721 Kbps
Width : 1 916 pixels
Height : 1 072 pixels
Display aspect ratio : 16:9
Frame rate mode : Constant
Frame rate : 23.976 fps
Color space : YUV
Chroma subsampling : 4:2:0
Bit depth : 8 bits
Scan type : Progressive
Bits/(Pixel*Frame) : 0.096
Stream size : 3.44 GiB (84%)
Language : English
Default : Yes
Forced : No
Color primaries : BT.709
Transfer characteristics : BT.709
Matrix coefficients : BT.709
Audio #1
ID : 2
Format : AC-3
Format/Info : Audio Coding 3
Mode extension : CM (complete main)
Format settings, Endianness : Big
Codec ID : A_AC3
Duration : 1h 44mn
Bit rate mode : Constant
Bit rate : 384 Kbps
Channel(s) : 6 channels
Channel positions : Front: L C R, Side: L R, LFE
Sampling rate : 48.0 KHz
Bit depth : 16 bits
Compression mode : Lossy
Stream size : 287 MiB (7%)
Title : R5
Language : Russian
Default : Yes
Forced : No
Audio #2
ID : 3
Format : AC-3
Format/Info : Audio Coding 3
Mode extension : CM (complete main)
Format settings, Endianness : Big
Codec ID : A_AC3
Duration : 1h 44mn
Bit rate mode : Constant
Bit rate : 384 Kbps
Channel(s) : 6 channels
Channel positions : Front: L C R, Side: L R, LFE
Sampling rate : 48.0 KHz
Bit depth : 16 bits
Compression mode : Lossy
Stream size : 287 MiB (7%)
Language : English
Default : No
Forced : No
Text
ID : 4
Format : UTF-8
Codec ID : S_TEXT/UTF8
Codec ID/Info : UTF-8 Plain Text
Language : English
Default : No
Forced : No
Menu
00:00:00.000 : en:1
00:05:22.000 : en:2
00:12:21.000 : en:3
00:17:23.000 : en:4
00:22:47.000 : en:5
00:29:42.000 : en:6
00:35:08.000 : en:7
00:42:56.000 : en:8
00:46:24.000 : en:9
00:50:38.000 : en:10
00:57:02.000 : en:11
01:04:17.000 : en:12
01:10:35.000 : en:13
01:16:49.000 : en:14
01:23:07.000 : en:15
01:35:31.000 : en:16

Скриншот c названием фильма

Скриншоты


Скачать

Скачать торрент!

Как скачивать? · Что такое торрент? · Рейтинг и ограничения

Сайт не распространяет и не хранит электронные версии произведений, а лишь предоставляет доступ к создаваемому пользователями каталогу ссылок на торрент-файлы, которые содержат только списки хеш-сумм

[Профиль] [ЛС]
Показать сообщения:    
Ответить на тему

Текущее время: Сегодня 05:59

Часовой пояс: GMT + 4



Вы не можете начинать темы
Вы не можете отвечать на сообщения
Вы не можете редактировать свои сообщения
Вы не можете удалять свои сообщения
Вы не можете голосовать в опросах
Вы не можете прикреплять файлы к сообщениям
Вы не можете скачивать файлы